<?xml version="1.0" standalone="no"?>
<!DOCTYPE svg PUBLIC "-//W3C//DTD SVG 1.1//EN" "http://www.w3.org/Graphics/SVG/1.1/DTD/svg11.dtd" >
<svg xmlns="http://www.w3.org/2000/svg" xmlns:xlink="http://www.w3.org/1999/xlink" version="1.1">
<metadata>
Created by FontForge 20170910 at Tue Jun 27 06:56:15 2017
 By Jimmy Wärting
Copyright(c) 2007 Linotype GmbH, www.linotype.com. All rights reserved.
</metadata>
<defs>
<font id="Avenir-BlackOblique" horiz-adv-x="574" >
  <font-face 
    font-family="Avenir Black Oblique"
    font-weight="800"
    font-style="oblique"
    font-stretch="normal"
    units-per-em="1000"
    panose-1="2 11 8 3 2 2 3 9 2 4"
    ascent="800"
    descent="-200"
    x-height="486"
    cap-height="708"
    bbox="-521 -457 1621 1174"
    underline-thickness="50"
    underline-position="-100"
    slope="-8"
    unicode-range="U+000D-FE48"
  />
<missing-glyph horiz-adv-x="512" 
d="M222 117v67h56v-67h-56zM225 234l-2 17q0 56 13 81q7 13 18 27.5t28 31.5q32 30 41 47.5t9 35.5q0 36 -22.5 60.5t-53.5 24.5t-53.5 -22t-28.5 -73l-50 8q7 72 44 104.5t91 32.5t89 -35.5t35 -95.5q0 -32 -12.5 -58.5t-50.5 -61.5q-37 -33 -43 -52q-6 -20 -6 -72h-46z
M462 50v617h-412v-617h412zM512 718v-718h-512v718h512z" />
    <glyph glyph-name="IJ" unicode="IJ" horiz-adv-x="791" 
d="M169 708h156l-99 -708h-156zM762 237q-7 -49 -22 -95t-44 -81.5t-76.5 -57t-119.5 -21.5q-84 0 -136.5 40t-57.5 125l148 35q-1 -26 17 -44t44 -18q27 0 44 13.5t27 33.5t14.5 43.5t7.5 43.5l64 454h156z" />
    <glyph glyph-name="ij" unicode="ij" horiz-adv-x="512" 
d="M123 486h150l-68 -486h-150zM132 639q3 18 12 34t22.5 27.5t30.5 18.5t35 7q36 0 57.5 -25.5t16.5 -61.5q-2 -18 -11 -34t-22.5 -27.5t-30.5 -18.5t-35 -7t-33 7t-25 18.5t-14.5 27.5t-2.5 34zM451 -36q-6 -47 -20 -84.5t-38.5 -64t-61 -41t-87.5 -14.5q-17 0 -35 1.5
t-34 6.5l27 133q16 -9 37 -9q19 0 31 10t19 25t10.5 32t5.5 31l70 496h150zM384 639q3 18 12 34t22.5 27.5t30.5 18.5t35 7q36 0 57.5 -25.5t16.5 -61.5q-2 -18 -11 -34t-22.5 -27.5t-30.5 -18.5t-35 -7t-33 7t-25 18.5t-14.5 27.5t-2.5 34z" />
    <glyph glyph-name="napostrophe" unicode="&#x22;n" 
d="M121 486h144l-9 -66h2q9 14 24 28t34 25t43 18t51 7q57 0 90 -17.5t48 -48.5t16 -73t-6 -91l-37 -268h-150l33 238q3 21 5 43.5t-3 41.5t-19 31t-43 12t-48.5 -10.5t-31.5 -28t-18 -39.5t-9 -46l-34 -242h-150zM67 708h134l-108 -199h-98z" />
    <glyph glyph-name="fi" unicode="fi" horiz-adv-x="630" 
d="M493 486h150l-68 -486h-150zM502 639q3 18 12 34t22.5 27.5t30.5 18.5t35 7q36 0 57.5 -25.5t16.5 -61.5q-2 -18 -11 -34t-22.5 -27.5t-30.5 -18.5t-35 -7t-33 7t-25 18.5t-14.5 27.5t-2.5 34zM156 366h-99l17 120h99l12 86q6 40 17.5 75.5t35.5 62.5t63.5 42.5
t100.5 15.5q23 0 45 -2t42 -7l-25 -127q-12 5 -22.5 7.5t-24.5 2.5q-36 0 -56 -15.5t-27 -63.5l-11 -77h111l-17 -120h-111l-51 -366h-150z" />
    <glyph glyph-name="fl" unicode="fl" horiz-adv-x="630" 
d="M531 756h150l-106 -756h-150zM156 366h-99l17 120h99l12 86q6 40 17.5 75.5t35.5 62.5t63.5 42.5t100.5 15.5q23 0 45 -2t42 -7l-25 -127q-12 5 -22.5 7.5t-24.5 2.5q-36 0 -56 -15.5t-27 -63.5l-11 -77h111l-17 -120h-111l-51 -366h-150z" />
    <glyph glyph-name=".notdef" horiz-adv-x="512" 
d="M222 117v67h56v-67h-56zM225 234l-2 17q0 56 13 81q7 13 18 27.5t28 31.5q32 30 41 47.5t9 35.5q0 36 -22.5 60.5t-53.5 24.5t-53.5 -22t-28.5 -73l-50 8q7 72 44 104.5t91 32.5t89 -35.5t35 -95.5q0 -32 -12.5 -58.5t-50.5 -61.5q-37 -33 -43 -52q-6 -20 -6 -72h-46z
M462 50v617h-412v-617h412zM512 718v-718h-512v718h512z" />
    <glyph glyph-name="nonmarkingreturn" unicode="&#xd;" horiz-adv-x="0" 
 />
    <glyph glyph-name="space" unicode=" " horiz-adv-x="296" 
 />
    <glyph glyph-name="exclam" unicode="!" horiz-adv-x="444" 
d="M329 234h-150l67 474h150zM142 86q3 19 12.5 36t23.5 29.5t32 19.5t37 7q38 0 61 -27t18 -65q-3 -19 -12.5 -36t-24 -29.5t-32 -19.5t-36.5 -7t-35 7t-26.5 19.5t-15.5 29.5t-2 36z" />
    <glyph glyph-name="quotedbl" unicode="&#x22;" horiz-adv-x="520" 
d="M412 708h126l-40 -282h-126zM180 708h126l-40 -282h-126z" />
    <glyph glyph-name="numbersign" unicode="#" horiz-adv-x="592" 
d="M157 201h-84l12 90h96l35 126h-84l13 90h96l56 201h97l-56 -201h99l56 201h97l-56 -201h84l-13 -90h-96l-35 -126h84l-12 -90h-96l-56 -201h-97l56 201h-99l-56 -201h-97zM412 417h-99l-35 -126h99z" />
    <glyph glyph-name="dollar" unicode="$" horiz-adv-x="592" 
d="M429 720q54 0 110 -14t95 -49l-113 -117q-21 21 -50.5 30.5t-61.5 11.5l-22 -159l92 -28q63 -20 96.5 -65.5t23.5 -115.5q-8 -53 -32.5 -93t-61.5 -68t-83 -44t-96 -21l-10 -70h-66l10 70q-66 0 -129 18t-107 63l123 119q22 -32 57 -45.5t75 -16.5l24 169l-70 22
q-72 24 -106 67.5t-23 119.5q7 47 31.5 85t60 65t79 44t88.5 22l10 70h66zM343 579q-29 -6 -53 -21t-29 -47q-3 -23 4 -36t18 -20.5t22.5 -10.5t17.5 -5zM345 128q16 3 32 8.5t29.5 14.5t22.5 21.5t12 29.5q2 16 -1.5 27t-11.5 18.5t-19.5 13t-23.5 10.5l-18 7z" />
    <glyph glyph-name="percent" unicode="%" horiz-adv-x="907" 
d="M534 187q6 41 26.5 77t51 63t68.5 42.5t79 15.5t74.5 -15.5t56.5 -42.5t33.5 -63t4.5 -77t-26.5 -77.5t-51 -63.5t-68.5 -42.5t-79 -15.5t-74.5 15.5t-56.5 42.5t-33.5 63.5t-4.5 77.5zM826 187q5 40 -18.5 68t-63.5 28q-20 0 -38.5 -7.5t-33 -20.5t-24 -30.5
t-12.5 -37.5q-6 -41 17.5 -69t63.5 -28q20 0 38.5 7.5t33 20.5t24.5 31t13 38zM78 522q6 41 26.5 77t51 63t68.5 42.5t79 15.5t74.5 -15.5t56.5 -42.5t33.5 -63t4.5 -77t-26.5 -77t-51 -63t-68.5 -42.5t-79 -15.5t-74.5 15.5t-56.5 42.5t-33.5 63t-4.5 77zM370 522
q5 40 -18.5 68t-63.5 28q-20 0 -38.5 -7.5t-33 -20.5t-24 -30.5t-12.5 -37.5q-6 -40 17.5 -68t63.5 -28q20 0 38.5 7.5t33 20.5t24.5 30.5t13 37.5zM719 740l77 -47l-515 -725l-70 43z" />
    <glyph glyph-name="ampersand" unicode="&#x26;" horiz-adv-x="759" 
d="M618 167l135 -167h-193l-50 67q-51 -45 -104 -65t-116 -20q-48 0 -91.5 13t-74.5 39.5t-47 66.5t-8 93q5 34 21 64.5t39.5 55.5t53.5 43.5t63 29.5q-15 19 -27 36t-19.5 36t-10.5 40t1 47q7 48 30.5 82t57.5 56t75.5 32t83.5 10q41 0 76.5 -10.5t61 -32t37.5 -54t6 -77.5
q-5 -32 -19 -59t-35.5 -50.5t-48 -42t-54.5 -32.5l78 -97l82 94h174zM418 606q-29 0 -51.5 -18t-27.5 -48q-2 -13 2 -25.5t11.5 -24t16.5 -21.5t17 -18q12 7 27.5 16.5t29 21t24 25t12.5 28.5q4 31 -14 47.5t-47 16.5zM327 302q-16 -9 -31.5 -18.5t-29 -21t-22.5 -26.5
t-12 -35t2.5 -36t17.5 -27t28.5 -17.5t34.5 -6.5q35 0 62.5 15t55.5 37z" />
    <glyph glyph-name="quotesingle" unicode="'" horiz-adv-x="296" 
d="M184 708h126l-40 -282h-126z" />
    <glyph glyph-name="parenleft" unicode="(" horiz-adv-x="314" 
d="M387 672q-37 -48 -67 -92t-53 -89.5t-39 -95t-24 -107.5t-6.5 -107.5t12 -95t28 -89.5t41.5 -92l-111 -60l-2 4q-55 103 -77 209.5t-5 230.5t69.5 230.5t136.5 209.5l2 4z" />
    <glyph glyph-name="parenright" unicode=")" horiz-adv-x="314" 
d="M7 -96q37 48 67 92t53 89.5t39 95t24 107.5t6.5 107.5t-12 95t-28 89.5t-41.5 92l111 60l2 -4q55 -103 77 -209.5t5 -230.5t-69.5 -230.5t-136.5 -209.5l-2 -4z" />
    <glyph glyph-name="asterisk" unicode="*" horiz-adv-x="482" 
d="M373 570l137 43l16 -95l-137 -42l67 -114l-91 -61l-68 115l-96 -110l-73 61l99 109l-126 46l45 95l125 -47l19 138h102z" />
    <glyph glyph-name="plus" unicode="+" horiz-adv-x="666" 
d="M110 366h211l30 211h126l-30 -211h211l-18 -126h-211l-29 -211h-126l29 211h-211z" />
    <glyph glyph-name="comma" unicode="," horiz-adv-x="296" 
d="M113 162h144l-129 -282h-128z" />
    <glyph glyph-name="hyphen" unicode="-" horiz-adv-x="296" 
d="M297 189h-246l17 120h246z" />
    <glyph glyph-name="period" unicode="." horiz-adv-x="296" 
d="M68 86q3 19 12.5 36t23.5 29.5t32 19.5t37 7q38 0 61 -27t18 -65q-3 -19 -12.5 -36t-24 -29.5t-32 -19.5t-36.5 -7t-35 7t-26.5 19.5t-15.5 29.5t-2 36z" />
    <glyph glyph-name="slash" unicode="/" horiz-adv-x="407" 
d="M402 761l110 -35l-410 -779l-107 35z" />
    <glyph glyph-name="zero" unicode="0" horiz-adv-x="592" 
d="M82 354q9 63 30 128t58 118t92.5 86.5t134.5 33.5t125 -33.5t68 -86.5t24.5 -118t-6.5 -128t-29.5 -128t-57.5 -118t-92.5 -86.5t-134.5 -33.5t-125 33.5t-68.5 86.5t-25 118t6.5 128zM232 354q-4 -28 -7 -67t3 -75t25 -61t60 -25q40 0 66.5 25t42.5 61t24 75t12 67t7 67
t-3 75t-25.5 61t-59.5 25q-41 0 -67 -25t-42 -61t-24 -75t-12 -67z" />
    <glyph glyph-name="one" unicode="1" horiz-adv-x="592" 
d="M363 540l-159 -125l-71 98l258 195h140l-99 -708h-144z" />
    <glyph glyph-name="two" unicode="2" horiz-adv-x="592" 
d="M71 159l310 247q12 10 24.5 20.5t23 22.5t18.5 26t10 30q5 36 -18 56.5t-58 20.5q-42 0 -69 -26t-35 -64l-149 11q11 55 37 95.5t62.5 67.5t83 40.5t98.5 13.5q48 0 88 -13.5t67 -40t39 -66.5t5 -93q-10 -68 -42 -111.5t-78 -78.5l-241 -185h314l-18 -132h-494z" />
    <glyph glyph-name="three" unicode="3" horiz-adv-x="592" 
d="M276 429h49q21 0 41.5 3t38 11.5t29.5 24t16 40.5q4 32 -18.5 53t-59.5 21q-35 0 -60.5 -19t-36.5 -47l-160 34q18 46 46.5 78.5t64.5 52.5t78 29.5t87 9.5q47 0 88.5 -11.5t71 -36t44 -61.5t7.5 -88q-8 -59 -45.5 -101t-97.5 -54v-3q31 -4 53.5 -19t36.5 -37t19 -50
t1 -59q-8 -53 -33.5 -93t-64 -66.5t-87 -39.5t-100.5 -13q-47 0 -87 10.5t-70 33t-48.5 57t-22.5 82.5l163 37q2 -38 23.5 -60t69.5 -22q49 0 76.5 25.5t32.5 65.5q4 30 -6 46.5t-29 24.5t-43.5 9.5t-49.5 1.5h-35z" />
    <glyph glyph-name="four" unicode="4" horiz-adv-x="592" 
d="M352 142h-309l18 126l351 440h164l-62 -440h91l-18 -126h-91l-19 -142h-144zM404 512h-2l-191 -244h159z" />
    <glyph glyph-name="five" unicode="5" horiz-adv-x="592" 
d="M597 576h-281l-18 -109q14 5 29 6.5t35 1.5q54 0 96.5 -16t71 -46.5t40.5 -74t4 -97.5q-8 -60 -35 -107t-67.5 -79.5t-92.5 -49.5t-110 -17q-92 0 -147.5 45t-66.5 136l162 36q1 -38 23.5 -61.5t61.5 -23.5q48 0 81 30t39 76q5 35 -6.5 57.5t-32.5 36t-49.5 18.5t-57.5 5
q-37 0 -75.5 -7t-75.5 -19l63 391h428z" />
    <glyph glyph-name="six" unicode="6" horiz-adv-x="592" 
d="M350 455q13 3 25 5t25 2q50 0 88.5 -18t63 -49t35 -73.5t3.5 -90.5q-8 -55 -34.5 -99.5t-66.5 -76.5t-91 -49.5t-106 -17.5q-56 0 -101.5 17.5t-77 49.5t-45.5 76.5t-6 99.5q5 38 16.5 69.5t27 59.5t34.5 53.5t40 52.5l189 242h183zM441 237q7 48 -21 79.5t-78 31.5
q-51 0 -86.5 -31.5t-42.5 -79.5t20.5 -79.5t77.5 -31.5q51 0 87 31.5t43 79.5z" />
    <glyph glyph-name="seven" unicode="7" horiz-adv-x="592" 
d="M467 570h-350l19 138h518l-19 -132l-363 -576h-175z" />
    <glyph glyph-name="eight" unicode="8" horiz-adv-x="592" 
d="M132 525q7 49 31 85.5t60 61t80.5 36.5t93.5 12t90.5 -12t70 -36.5t42 -61t6.5 -85.5q-8 -58 -45 -99t-97 -58v-2q62 -17 89.5 -61.5t18.5 -110.5q-7 -51 -33 -90t-64 -64.5t-85 -38.5t-96 -13t-92.5 13t-74 38.5t-45.5 64.5t-8 90q9 66 49.5 110.5t106.5 61.5v2
q-55 17 -80.5 58t-17.5 99zM279 504q-5 -33 16 -56t60 -23t66 23t32 56q5 32 -16 55t-60 23t-66 -23t-32 -55zM227 215q-5 -37 18 -63t68 -26q44 0 75.5 26t36.5 63q5 38 -18.5 64t-68.5 26t-75.5 -26t-35.5 -64z" />
    <glyph glyph-name="nine" unicode="9" horiz-adv-x="592" 
d="M340 253q-13 -3 -25 -5t-25 -2q-50 0 -88.5 18t-63 49t-34.5 73.5t-3 90.5q7 55 34 99.5t67 76.5t90.5 49.5t106.5 17.5q55 0 101 -17.5t77 -49.5t45 -76.5t7 -99.5q-6 -38 -17.5 -69.5t-27 -59.5t-34.5 -53.5t-39 -52.5l-189 -242h-183zM250 471q-7 -48 20.5 -79.5
t77.5 -31.5q51 0 87 31.5t43 79.5t-21 79.5t-78 31.5q-51 0 -86.5 -31.5t-42.5 -79.5z" />
    <glyph glyph-name="colon" unicode=":" horiz-adv-x="296" 
d="M68 86q3 19 12.5 36t23.5 29.5t32 19.5t37 7q38 0 61 -27t18 -65q-3 -19 -12.5 -36t-24 -29.5t-32 -19.5t-36.5 -7t-35 7t-26.5 19.5t-15.5 29.5t-2 36zM113 406q3 19 12 36t23.5 29.5t32 19.5t36.5 7t35 -7t27 -19.5t16 -29.5t2 -36t-12.5 -36t-24 -29.5t-32 -19.5
t-36.5 -7t-35 7t-26.5 19.5t-15.5 29.5t-2 36z" />
    <glyph glyph-name="semicolon" unicode=";" horiz-adv-x="296" 
d="M113 162h144l-129 -282h-128zM113 406q3 19 12 36t23.5 29.5t32 19.5t36.5 7t35 -7t27 -19.5t16 -29.5t2 -36t-12.5 -36t-24 -29.5t-32 -19.5t-36.5 -7t-35 7t-26.5 19.5t-15.5 29.5t-2 36z" />
    <glyph glyph-name="less" unicode="&#x3c;" horiz-adv-x="666" 
d="M646 428l-335 -124v-2l300 -124l-20 -136l-478 198l18 126l534 198z" />
    <glyph glyph-name="equal" unicode="=" horiz-adv-x="666" 
d="M123 462h548l-17 -126h-548zM96 270h548l-17 -126h-548z" />
    <glyph glyph-name="greater" unicode="&#x3e;" horiz-adv-x="666" 
d="M105 178l334 124v2l-299 124l19 136l478 -198l-18 -126l-534 -198z" />
    <glyph glyph-name="question" unicode="?" horiz-adv-x="556" 
d="M255 278q4 30 15 51t32 39q31 27 57.5 47t46 37.5t31.5 33t14 32.5q5 33 -13 51.5t-49 18.5q-47 0 -75 -26t-36 -63l-153 10q26 106 101 161.5t180 55.5q46 0 85 -12.5t66 -37.5t40 -62t6 -85q-4 -29 -13.5 -52.5t-27 -46.5t-44.5 -46.5t-67 -51.5q-26 -18 -36 -35
t-13 -34l-4 -29h-150zM211 86q3 19 12.5 36t23.5 29.5t32 19.5t37 7q38 0 61 -27t18 -65q-3 -19 -12.5 -36t-24 -29.5t-32 -19.5t-36.5 -7t-35 7t-26.5 19.5t-15.5 29.5t-2 36z" />
    <glyph glyph-name="at" unicode="@" horiz-adv-x="800" 
d="M526 364q5 40 -9 66t-52 26q-23 0 -43 -9.5t-35.5 -26.5t-25.5 -39.5t-14 -48.5q-2 -16 -1.5 -32t6.5 -28.5t18.5 -20.5t33.5 -8q31 0 53 11t36.5 28.5t22 39t10.5 42.5zM615 337q-5 -14 -10.5 -33t-7.5 -33q-2 -11 2.5 -19.5t20.5 -8.5t32.5 8.5t31 27t26 46.5t17.5 67
q8 60 -5 105.5t-43.5 76.5t-76 46.5t-102.5 15.5q-62 0 -116 -21t-96 -59t-69 -90t-36 -113q-9 -66 6 -118t49 -88t85.5 -55.5t114.5 -19.5q57 0 106.5 16t90.5 45h110q-64 -74 -150 -112.5t-178 -38.5q-80 0 -146.5 27.5t-112.5 76.5t-67 117.5t-10 149.5q11 80 51 148
t99 118t132.5 78.5t152.5 28.5q66 0 126.5 -21.5t104.5 -63.5t65.5 -103.5t10.5 -140.5q-11 -80 -44 -128t-72.5 -74t-78.5 -34t-61 -8q-42 0 -57.5 17t-13.5 37h-2q-23 -20 -55.5 -37t-80.5 -17q-32 0 -57 12.5t-40.5 34.5t-21.5 53t-1 68q6 44 25.5 84.5t49.5 72t69.5 50
t86.5 18.5q40 0 64.5 -13t35.5 -44h2l15 45h94z" />
    <glyph glyph-name="A" unicode="A" horiz-adv-x="741" 
d="M404 708h129l209 -708h-176l-40 150h-275l-80 -150h-172zM435 502l-117 -220h173z" />
    <glyph glyph-name="B" unicode="B" horiz-adv-x="648" 
d="M171 708h264q46 0 91.5 -6.5t80 -26t52.5 -54.5t10 -93q-8 -60 -47.5 -99.5t-96.5 -56.5v-2q34 -5 60.5 -19.5t43.5 -37t24 -52.5t2 -64q-8 -56 -37 -93.5t-70 -60.5t-90 -33t-96 -10h-290zM287 425h113q18 0 36 4t33.5 13t26 24t13.5 36q3 22 -4.5 36.5t-21.5 22.5
t-32.5 11.5t-36.5 3.5h-106zM246 132h140q18 0 37.5 4t35.5 14t28 26t15 39q3 25 -7 40.5t-28 23.5t-39.5 11t-40.5 3h-118z" />
    <glyph glyph-name="C" unicode="C" horiz-adv-x="685" 
d="M608 524q-20 28 -51 43t-75 15t-84 -17t-71.5 -47.5t-53 -72.5t-28.5 -91q-7 -50 2.5 -91.5t32 -72t57 -47.5t76.5 -17q48 0 88 20t69 56l116 -97q-54 -63 -127 -93t-146 -30q-83 0 -149.5 26t-110.5 74.5t-63 117.5t-7 154t50.5 154t96 117.5t131.5 74.5t157 26
q30 0 61.5 -5.5t61.5 -17.5t56.5 -32t44.5 -49z" />
    <glyph glyph-name="D" unicode="D" horiz-adv-x="759" 
d="M171 708h234q85 0 158.5 -19t125 -61.5t75 -110.5t10.5 -165q-12 -86 -53.5 -151.5t-102.5 -110t-136.5 -67.5t-154.5 -23h-255zM248 144h81q54 0 102 11t85.5 36.5t62.5 67t34 101.5q7 52 -6.5 90.5t-43.5 63.5t-72.5 37.5t-91.5 12.5h-92z" />
    <glyph glyph-name="E" unicode="E" horiz-adv-x="630" 
d="M177 708h481l-20 -144h-325l-19 -132h307l-20 -144h-307l-20 -144h343l-20 -144h-499z" />
    <glyph glyph-name="F" unicode="F" horiz-adv-x="593" 
d="M177 708h475l-20 -144h-319l-20 -144h295l-21 -144h-295l-38 -276h-156z" />
    <glyph glyph-name="G" unicode="G" horiz-adv-x="778" 
d="M720 50q-75 -36 -152 -52t-155 -16q-83 0 -149.5 26t-110.5 74.5t-63 117.5t-7 154t50.5 154t96 117.5t131.5 74.5t157 26q85 0 153.5 -20.5t115.5 -70.5l-127 -120q-27 33 -65 50t-98 17q-50 0 -93 -17t-76 -47.5t-54.5 -72.5t-28.5 -91q-7 -50 3 -91.5t34.5 -72
t62.5 -47.5t88 -17q51 0 90 11.5t62 23.5l16 115h-127l21 144h277z" />
    <glyph glyph-name="H" unicode="H" horiz-adv-x="759" 
d="M171 708h156l-37 -264h303l37 264h156l-99 -708h-156l43 306h-303l-43 -306h-156z" />
    <glyph glyph-name="I" unicode="I" horiz-adv-x="296" 
d="M169 708h156l-99 -708h-156z" />
    <glyph glyph-name="J" unicode="J" horiz-adv-x="500" 
d="M471 237q-7 -49 -22 -95t-44 -81.5t-76.5 -57t-119.5 -21.5q-84 0 -136.5 40t-57.5 125l148 35q-1 -26 17 -44t44 -18q27 0 44 13.5t27 33.5t14.5 43.5t7.5 43.5l64 454h156z" />
    <glyph glyph-name="K" unicode="K" horiz-adv-x="722" 
d="M177 708h156l-41 -294l316 294h204l-361 -329l289 -379h-218l-241 336l-47 -336h-156z" />
    <glyph glyph-name="L" unicode="L" horiz-adv-x="537" 
d="M177 708h156l-79 -564h289l-20 -144h-445z" />
    <glyph glyph-name="M" unicode="M" horiz-adv-x="944" 
d="M171 708h236l98 -462h2l229 462h235l-99 -708h-156l76 543h-2l-262 -543h-119l-103 543h-2l-76 -543h-156z" />
    <glyph glyph-name="N" unicode="N" horiz-adv-x="815" 
d="M171 708h212l232 -492h2l69 492h156l-99 -708h-204l-239 504h-2l-70 -504h-156z" />
    <glyph glyph-name="O" unicode="O" horiz-adv-x="832" 
d="M83 354q12 85 50.5 154t96 117.5t131.5 74.5t157 26t149 -26t110 -74.5t63 -117.5t7 -154t-50 -154t-96 -117.5t-131.5 -74.5t-156.5 -26t-149.5 26t-110.5 74.5t-63 117.5t-7 154zM245 354q-7 -50 3 -91.5t34.5 -72t62.5 -47.5t88 -17t93 17t76 47.5t54.5 72t28.5 91.5
q7 49 -2.5 91t-34.5 72.5t-63 47.5t-88 17t-93 -17t-76 -47.5t-54.5 -72.5t-28.5 -91z" />
    <glyph glyph-name="P" unicode="P" horiz-adv-x="630" 
d="M171 708h263q55 0 102.5 -10t80.5 -34.5t49 -66t7 -104.5q-9 -62 -35 -104t-64.5 -67t-88 -35.5t-105.5 -10.5h-114l-38 -276h-156zM285 408h104q21 0 41 4t37 13.5t29 26t15 41.5q4 27 -6.5 43.5t-29 25.5t-42 11.5t-45.5 2.5h-80z" />
    <glyph glyph-name="Q" unicode="Q" horiz-adv-x="852" 
d="M847 0h-429q-83 0 -150 24.5t-112 71.5t-64 114t-7 153q11 80 50 147t97 115t130.5 74.5t151.5 26.5t144 -27t109 -75t64.5 -114.5t9.5 -146.5q-6 -38 -19.5 -74t-35 -68t-51.5 -57.5t-69 -41.5l-1 -2h198zM247 363q-7 -46 4.5 -86t36.5 -69.5t62 -46.5t82 -17t86.5 17
t75 46.5t56 69.5t29.5 86q6 46 -5.5 86t-36.5 69.5t-62 46.5t-82 17t-86.5 -17t-75 -46.5t-56 -69.5t-28.5 -86z" />
    <glyph glyph-name="R" unicode="R" horiz-adv-x="648" 
d="M171 708h274q54 0 101 -10.5t80 -35t49 -66t7 -103.5q-11 -75 -57 -127.5t-123 -66.5l138 -299h-187l-109 283h-77l-39 -283h-156zM286 415h92q21 0 44.5 1.5t43.5 9t35 23.5t19 45q4 27 -5 43t-25 24.5t-37.5 11.5t-42.5 3h-102z" />
    <glyph glyph-name="S" unicode="S" 
d="M497 535q-16 24 -47 35.5t-60 11.5q-17 0 -36 -4t-35.5 -12.5t-28.5 -22.5t-15 -34q-3 -24 8.5 -39.5t33 -26t50 -18.5t57.5 -18t56.5 -24t47.5 -35.5t29.5 -54t2.5 -78.5q-8 -59 -36.5 -103t-70 -73t-93 -43t-106.5 -14q-69 0 -125 21t-101 68l129 122
q20 -32 53.5 -49.5t72.5 -17.5q19 0 39 4.5t37 13.5t28.5 23t14.5 33q5 32 -17.5 50.5t-57.5 31.5t-76 26t-75 35t-53.5 58t-11.5 95q8 57 36.5 100t70.5 72t93 43.5t103 14.5q60 0 113.5 -17t92.5 -57z" />
    <glyph glyph-name="T" unicode="T" 
d="M289 570h-202l19 138h560l-19 -138h-202l-80 -570h-156z" />
    <glyph glyph-name="U" unicode="U" horiz-adv-x="741" 
d="M707 273q-9 -63 -35.5 -116t-69.5 -92t-102 -61t-132 -22q-74 0 -127 22t-85 61t-43.5 92t-2.5 116l61 435h156l-60 -429q-5 -33 1.5 -61t23 -48.5t41 -32t55.5 -11.5t58.5 11.5t49.5 32t36.5 48.5t19.5 61l60 429h156z" />
    <glyph glyph-name="V" unicode="V" horiz-adv-x="704" 
d="M101 708h178l110 -464h2l243 464h167l-391 -708h-125z" />
    <glyph glyph-name="W" unicode="W" horiz-adv-x="1000" 
d="M97 708h170l49 -454h2l212 454h145l82 -466h2l184 466h158l-306 -708h-139l-88 490h-2l-224 -490h-134z" />
    <glyph glyph-name="X" unicode="X" horiz-adv-x="722" 
d="M300 370l-187 338h196l116 -248l180 248h189l-276 -335l204 -373h-196l-133 285l-208 -285h-185z" />
    <glyph glyph-name="Y" unicode="Y" horiz-adv-x="648" 
d="M288 302l-209 406h194l113 -265l196 265h185l-323 -406l-42 -302h-156z" />
    <glyph glyph-name="Z" unicode="Z" horiz-adv-x="630" 
d="M55 144l419 426h-346l19 138h535l-19 -138l-412 -426h364l-20 -144h-560z" />
    <glyph glyph-name="bracketleft" unicode="[" horiz-adv-x="296" 
d="M366 642h-90l-100 -708h90l-12 -90h-210l124 888h210z" />
    <glyph glyph-name="backslash" unicode="\" horiz-adv-x="407" 
d="M289 -53l-190 779l118 35l190 -779z" />
    <glyph glyph-name="bracketright" unicode="]" horiz-adv-x="296" 
d="M10 -66h90l100 708h-90l12 90h210l-124 -888h-209z" />
    <glyph glyph-name="asciicircum" unicode="^" horiz-adv-x="666" 
d="M359 708h146l129 -365h-142l-78 238l-145 -238h-141z" />
    <glyph glyph-name="underscore" unicode="_" horiz-adv-x="500" 
d="M-17 -125l7 50h499l-7 -50h-499z" />
    <glyph glyph-name="grave" unicode="`" horiz-adv-x="260" 
d="M311 564h-132l-153 144h204z" />
    <glyph glyph-name="a" unicode="a" horiz-adv-x="537" 
d="M366 61h-2q-30 -39 -74 -56t-90 -17q-34 0 -64 9.5t-51.5 28.5t-31.5 47t-5 65q9 63 47.5 97.5t91 51t110 19.5t104.5 3q5 40 -20 63.5t-64 23.5q-37 0 -69.5 -15.5t-60.5 -42.5l-68 82q47 39 105.5 58.5t118.5 19.5q66 0 106.5 -16.5t61.5 -48.5t24.5 -78.5t-5.5 -107.5
l-34 -247h-138zM350 213q-17 0 -42.5 -1.5t-50 -8.5t-43 -21t-21.5 -39q-2 -14 3 -23.5t14 -16.5t21.5 -10t24.5 -3q22 0 43.5 6t39 17t29.5 28t15 40l4 32h-37z" />
    <glyph glyph-name="b" unicode="b" horiz-adv-x="630" 
d="M173 756h150l-46 -322h2q31 35 73.5 49.5t89.5 14.5q52 0 90 -21.5t62 -57.5t32.5 -82.5t1.5 -97.5q-8 -55 -31.5 -101t-59.5 -79.5t-82.5 -52t-100.5 -18.5q-26 0 -48 7t-40 18t-31 24.5t-20 26.5h-2l-8 -64h-138zM239 243q-8 -55 18.5 -89t83.5 -34t93.5 34t44.5 89
t-19 89t-84 34t-93 -34t-44 -89z" />
    <glyph glyph-name="c" unicode="c" horiz-adv-x="482" 
d="M428 329q-9 16 -27.5 26.5t-41.5 10.5q-57 0 -93 -34t-44 -89t18.5 -89t83.5 -34q25 0 45 11t35 26l84 -104q-41 -36 -90 -50.5t-92 -14.5q-56 0 -103 18t-78.5 51.5t-46 80.5t-6.5 105t35.5 105t68.5 80.5t93 51.5t108 18q43 0 88.5 -14.5t75.5 -50.5z" />
    <glyph glyph-name="d" unicode="d" horiz-adv-x="630" 
d="M563 0h-138l8 64h-2q-10 -13 -26.5 -26.5t-37.5 -24.5t-45.5 -18t-49.5 -7q-54 0 -95.5 18.5t-68.5 52t-37.5 79.5t-2.5 101q7 51 29 97.5t55.5 82.5t77.5 57.5t96 21.5q47 0 86 -14.5t59 -49.5h2l46 322h150zM459 243q8 55 -19 89t-84 34t-93 -34t-44 -89t18.5 -89
t83.5 -34t93.5 34t44.5 89z" />
    <glyph glyph-name="e" unicode="e" 
d="M524 84q-42 -46 -100.5 -71t-117.5 -25q-56 0 -103 18t-78.5 51.5t-46 80.5t-6.5 105t35.5 105t68.5 80.5t93 51.5t108 18q52 0 92 -18t65 -51.5t34.5 -80.5t1.5 -105l-7 -47h-348q3 -43 29.5 -68.5t70.5 -25.5q37 0 64.5 16.5t50.5 42.5zM427 298q6 38 -16 65t-63 27
q-25 0 -45 -8t-35 -20.5t-25 -29t-14 -34.5h198z" />
    <glyph glyph-name="f" unicode="f" horiz-adv-x="370" 
d="M156 366h-99l17 120h99l12 86q6 40 17.5 75.5t35.5 62.5t63.5 42.5t100.5 15.5q23 0 45 -2t42 -7l-25 -127q-12 5 -22.5 7.5t-24.5 2.5q-36 0 -56 -15.5t-27 -63.5l-11 -77h111l-17 -120h-111l-51 -366h-150z" />
    <glyph glyph-name="g" unicode="g" horiz-adv-x="630" 
d="M568 41q-19 -138 -98.5 -209.5t-221.5 -71.5q-65 0 -126 14.5t-108 56.5l100 124q31 -29 67 -46t82 -17q69 0 106 33.5t45 85.5l7 47h-2q-31 -35 -71.5 -49.5t-74.5 -14.5q-54 0 -95.5 18.5t-68.5 52t-37.5 79.5t-2.5 101q7 48 28.5 94t55 81t77.5 56.5t96 21.5
q32 0 58 -7t45.5 -18t32.5 -24.5t20 -26.5h2l9 64h138zM219 246q-3 -24 3 -45.5t19.5 -38t34 -26.5t46.5 -10q25 0 48.5 10t42 26.5t31 38t15.5 45.5t-3 45.5t-19.5 38t-34.5 26.5t-46 10q-26 0 -49 -10t-41.5 -26.5t-31 -38t-15.5 -45.5z" />
    <glyph glyph-name="h" unicode="h" 
d="M309 756l-47 -336h2q7 14 20.5 28t32 25t42.5 18t51 7q57 0 90 -17.5t48 -48.5t16 -73t-6 -91l-37 -268h-150l33 238q3 21 5 43.5t-3 41.5t-19 31t-43 12t-48.5 -10.5t-31.5 -28t-18 -39.5t-9 -46l-34 -242h-150l106 756h150z" />
    <glyph glyph-name="i" unicode="i" horiz-adv-x="260" 
d="M123 486h150l-68 -486h-150zM132 639q3 18 12 34t22.5 27.5t30.5 18.5t35 7q36 0 57.5 -25.5t16.5 -61.5q-2 -18 -11 -34t-22.5 -27.5t-30.5 -18.5t-35 -7t-33 7t-25 18.5t-14.5 27.5t-2.5 34z" />
    <glyph glyph-name="j" unicode="j" horiz-adv-x="260" 
d="M199 -36q-6 -47 -20 -84.5t-38.5 -64t-61 -41t-87.5 -14.5q-17 0 -35 1.5t-34 6.5l27 133q16 -9 37 -9q19 0 31 10t19 25t10.5 32t5.5 31l70 496h150zM132 639q3 18 12 34t22.5 27.5t30.5 18.5t35 7q36 0 57.5 -25.5t16.5 -61.5q-2 -18 -11 -34t-22.5 -27.5t-30.5 -18.5
t-35 -7t-33 7t-25 18.5t-14.5 27.5t-2.5 34z" />
    <glyph glyph-name="k" unicode="k" horiz-adv-x="556" 
d="M159 756h150l-65 -462l193 192h184l-224 -219l161 -267h-189l-130 246h-2l-34 -246h-150z" />
    <glyph glyph-name="l" unicode="l" horiz-adv-x="260" 
d="M161 756h150l-106 -756h-150z" />
    <glyph glyph-name="m" unicode="m" horiz-adv-x="870" 
d="M121 486h144l-9 -66h2q9 14 24 28t34 25t43 18t51 7q51 0 88 -21t50 -66q33 47 72.5 67t93.5 20q49 0 80 -16.5t47 -45t19 -67t-3 -82.5l-40 -287h-150l39 283q5 34 -6 58.5t-48 24.5q-26 0 -44.5 -8.5t-31.5 -23.5t-20 -35t-10 -42l-36 -257h-150l36 257q2 13 3.5 32
t-2 36t-15.5 29t-38 12q-29 0 -48.5 -10.5t-31.5 -28t-18 -39.5t-9 -46l-34 -242h-150z" />
    <glyph glyph-name="n" unicode="n" 
d="M121 486h144l-9 -66h2q9 14 24 28t34 25t43 18t51 7q57 0 90 -17.5t48 -48.5t16 -73t-6 -91l-37 -268h-150l33 238q3 21 5 43.5t-3 41.5t-19 31t-43 12t-48.5 -10.5t-31.5 -28t-18 -39.5t-9 -46l-34 -242h-150z" />
    <glyph glyph-name="o" unicode="o" horiz-adv-x="610" 
d="M69 243q8 58 35.5 105t68.5 80.5t93 51.5t108 18t103 -18t79 -51.5t46.5 -80.5t6.5 -105t-36 -105t-69 -80.5t-93 -51.5t-108 -18t-103 18t-78.5 51.5t-46 80.5t-6.5 105zM219 243q-8 -55 18.5 -89t83.5 -34t93.5 34t44.5 89t-19 89t-84 34t-93 -34t-44 -89z" />
    <glyph glyph-name="p" unicode="p" horiz-adv-x="630" 
d="M135 486h138l-9 -64h2q10 13 27 26.5t37.5 24.5t44.5 18t50 7q54 0 95.5 -18.5t68.5 -52t37.5 -79.5t2.5 -101q-7 -51 -29 -97.5t-55.5 -82.5t-77.5 -57.5t-96 -21.5q-47 0 -86 14.5t-59 49.5h-2l-40 -280h-150zM239 243q-8 -55 18.5 -89t83.5 -34t93.5 34t44.5 89
t-19 89t-84 34t-93 -34t-44 -89z" />
    <glyph glyph-name="q" unicode="q" horiz-adv-x="630" 
d="M530 -228h-150l40 280h-2q-31 -35 -73.5 -49.5t-89.5 -14.5q-52 0 -90 21.5t-62 57.5t-32.5 82.5t-1.5 97.5q8 55 31.5 101t59.5 79.5t82.5 52t100.5 18.5q25 0 47.5 -7t40.5 -18t31 -24.5t20 -26.5h2l9 64h138zM459 243q8 55 -19 89t-84 34t-93 -34t-44 -89t18.5 -89
t83.5 -34t93.5 34t44.5 89z" />
    <glyph glyph-name="r" unicode="r" horiz-adv-x="407" 
d="M121 486h150l-11 -78h2q30 45 66 67.5t86 22.5q13 0 26 -1t24 -4l-19 -137q-16 5 -31 7.5t-32 2.5q-43 0 -70 -12t-43 -33.5t-24.5 -51.5t-13.5 -66l-28 -203h-150z" />
    <glyph glyph-name="s" unicode="s" horiz-adv-x="463" 
d="M376 343q-27 41 -82 41q-19 0 -38 -9t-22 -31q-3 -18 15 -26.5t45 -15t58.5 -14t57.5 -23.5t40.5 -43.5t8.5 -73.5q-6 -47 -31 -77.5t-59.5 -49t-75.5 -26t-80 -7.5q-51 0 -101 14.5t-81 51.5l105 101q18 -26 41.5 -39.5t57.5 -13.5q26 0 48 7.5t25 27.5q3 19 -14.5 28.5
t-45 16t-59 14t-58 22.5t-41.5 42.5t-8 73.5q6 43 28 74t53.5 51t69.5 29.5t76 9.5q48 0 95 -14t76 -50z" />
    <glyph glyph-name="t" unicode="t" horiz-adv-x="407" 
d="M435 366h-132l-23 -162q-3 -20 -3 -36.5t5.5 -28.5t19 -18.5t37.5 -6.5q12 0 31.5 2.5t30.5 11.5l-17 -125q-26 -9 -53.5 -12t-53.5 -3q-38 0 -69 8t-52.5 25.5t-31 45.5t-4.5 68l33 231h-96l17 120h96l20 144h150l-20 -144h132z" />
    <glyph glyph-name="u" unicode="u" 
d="M521 0h-144l9 66h-2q-10 -14 -24.5 -28t-34 -25t-43.5 -18t-51 -7q-57 0 -90 17.5t-48 48.5t-16 73t6 91l38 268h150l-34 -238q-3 -21 -5 -43.5t3 -41.5t19 -31t43 -12t48.5 10.5t31.5 28t18.5 39.5t9.5 46l34 242h150z" />
    <glyph glyph-name="v" unicode="v" horiz-adv-x="556" 
d="M70 486h162l76 -330h2l161 330h151l-260 -486h-159z" />
    <glyph glyph-name="w" unicode="w" horiz-adv-x="833" 
d="M63 486h160l56 -305h2l126 305h164l47 -305h2l134 305h152l-241 -486h-148l-56 323h-2l-135 -323h-151z" />
    <glyph glyph-name="x" unicode="x" horiz-adv-x="556" 
d="M220 260l-130 226h177l67 -132l102 132h167l-190 -226l151 -260h-177l-84 162l-136 -162h-175z" />
    <glyph glyph-name="y" unicode="y" horiz-adv-x="556" 
d="M321 -79q-20 -39 -38 -69t-42.5 -50.5t-59 -31t-88.5 -10.5q-58 0 -109 18l37 123q31 -15 67 -15q25 0 42 5.5t29 16t21 25.5t20 35l15 28l-144 490h162l80 -321h2l152 321h154z" />
    <glyph glyph-name="z" unicode="z" horiz-adv-x="500" 
d="M55 150l282 216h-246l17 120h420l-20 -144l-296 -222h270l-16 -120h-432z" />
    <glyph glyph-name="braceleft" unicode="{" horiz-adv-x="370" 
d="M334 -156h-105q-27 0 -49.5 8t-37.5 26t-21.5 45.5t-0.5 66.5l24 172q3 23 -8 37t-28 21t-35 9t-27 2l16 114q9 0 27.5 2t37.5 9t34.5 21t18.5 37l24 173q6 39 19.5 66.5t33 45t44 25.5t52.5 8h105l-16 -114h-49q-23 0 -37 -6t-21.5 -15.5t-11 -21t-4.5 -21.5l-22 -161
q-5 -35 -17.5 -55t-29 -30.5t-34.5 -14t-34 -4.5v-2q15 -1 32 -4t30.5 -13.5t20 -30.5t2.5 -55l-22 -162q-2 -10 -2 -21.5t5.5 -21t17.5 -15.5t35 -6h49z" />
    <glyph glyph-name="bar" unicode="|" horiz-adv-x="222" 
d="M279 750l-141 -1000h-126l141 1000h126z" />
    <glyph glyph-name="braceright" unicode="}" horiz-adv-x="370" 
d="M116 732h108q25 0 47 -8t37 -26t21 -45.5t1 -66.5l-24 -172q-3 -23 8 -37t27.5 -21t34 -9t28.5 -2l-16 -114q-11 0 -29 -2t-37 -9t-34 -21t-18 -37l-24 -173q-6 -39 -19.5 -66.5t-33 -45t-44 -25.5t-52.5 -8h-104l15 114h49q23 0 37 6t21.5 15.5t10.5 21t5 21.5l22 161
q5 35 17.5 55t29 30.5t34.5 13.5t34 5v2q-15 1 -32 4t-30.5 13.5t-20.5 30.5t-2 55l22 162q1 10 1.5 21.5t-5 21t-17.5 15.5t-35 6h-49z" />
    <glyph glyph-name="asciitilde" unicode="~" horiz-adv-x="666" 
d="M605 292q-11 -16 -24 -31.5t-30 -27.5t-38 -19.5t-46 -7.5q-26 0 -52.5 9.5t-53.5 22.5q-26 12 -51.5 24t-45.5 12q-15 0 -28.5 -6.5t-25.5 -16t-23 -21.5t-21 -24l-20 108q10 16 23.5 31.5t30.5 27.5t37.5 19.5t45.5 7.5q26 0 53 -9.5t53 -22.5q26 -12 51.5 -24
t45.5 -12q15 0 28 6.5t25 16t23 21.5l22 24z" />
    <glyph glyph-name="Euro" unicode="&#x20ac;" horiz-adv-x="592" 
d="M588 75q-19 -20 -44.5 -36t-55 -27t-62.5 -17.5t-66 -6.5q-112 0 -171.5 59.5t-66.5 174.5h-81l40 90h42q0 5 0.5 9t1.5 9l3 19q2 13 4 25l4 24h-68l44 92h52q47 115 133 172.5t207 57.5q17 0 39 -2.5t44 -6t40.5 -9t27.5 -11.5l-65 -130q-14 10 -42 17.5t-63 7.5
q-51 0 -92.5 -22.5t-70.5 -73.5h235l-43 -92h-226l-4 -22t-4 -23l-3 -21q-1 -5 -1.5 -10t-0.5 -10h204l-41 -90h-160q8 -49 35.5 -76.5t78.5 -27.5q42 0 72.5 16t55.5 42z" />
    <glyph glyph-name="quotesinglbase" unicode="&#x201a;" horiz-adv-x="296" 
d="M149 -126h-128l113 282h144z" />
    <glyph glyph-name="florin" unicode="&#x192;" horiz-adv-x="592" 
d="M542 332h-146l-99 -292q-14 -41 -33.5 -74t-46.5 -56.5t-63 -36t-83 -12.5q-28 0 -55.5 6.5t-51.5 17.5l68 119q10 -6 21.5 -8.5t23.5 -2.5q32 0 51 21.5t37 73.5l84 244h-114l14 102h134l31 91q19 55 39 92.5t46.5 60.5t60.5 32.5t80 9.5q35 0 65 -7.5t60 -22.5
l-68 -113q-24 11 -51 11q-36 0 -55.5 -19.5t-35.5 -63.5l-25 -71h126z" />
    <glyph glyph-name="quotedblbase" unicode="&#x201e;" horiz-adv-x="520" 
d="M368 -126h-128l113 282h144zM154 -126h-128l113 282h144z" />
    <glyph glyph-name="ellipsis" unicode="&#x2026;" horiz-adv-x="1000" 
d="M87 86q3 19 12.5 36t23.5 29.5t32 19.5t37 7q38 0 61 -27t18 -65q-3 -19 -12.5 -36t-24 -29.5t-32 -19.5t-36.5 -7t-35 7t-26.5 19.5t-15.5 29.5t-2 36zM420 86q3 19 12.5 36t23.5 29.5t32 19.5t37 7q38 0 61 -27t18 -65q-3 -19 -12.5 -36t-24 -29.5t-32 -19.5t-36.5 -7
t-35 7t-26.5 19.5t-15.5 29.5t-2 36zM753 86q3 19 12.5 36t23.5 29.5t32 19.5t37 7q38 0 61 -27t18 -65q-3 -19 -12.5 -36t-24 -29.5t-32 -19.5t-36.5 -7t-35 7t-26.5 19.5t-15.5 29.5t-2 36z" />
    <glyph glyph-name="dagger" unicode="&#x2020;" horiz-adv-x="592" 
d="M276 372h-190l17 126h190l30 210h138l-30 -210h196l-17 -126h-196l-71 -505h-138z" />
    <glyph glyph-name="daggerdbl" unicode="&#x2021;" horiz-adv-x="592" 
d="M233 47h-193l17 120h193l34 241h-193l17 120h193l25 180h138l-25 -180h193l-17 -120h-193l-34 -241h193l-17 -120h-193l-25 -180h-138z" />
    <glyph glyph-name="circumflex" unicode="&#x2c6;" horiz-adv-x="260" 
d="M270 564l-52 78l-73 -78h-135l139 144h163l96 -144h-138z" />
    <glyph glyph-name="perthousand" unicode="&#x2030;" horiz-adv-x="1167" 
d="M418 165q5 36 23 68t45 56t61 38t71 14q36 0 66.5 -14t51 -38t30 -56t4.5 -68t-23.5 -68.5t-46 -56.5t-61.5 -38t-70 -14q-37 0 -67 14t-50.5 38t-29.5 56.5t-4 68.5zM805 165q5 36 23 68t45.5 56t61.5 38t70 14t66.5 -14t51.5 -38t30.5 -56t4.5 -68t-23.5 -68.5
t-46 -56.5t-62 -38t-70.5 -14t-66.5 14t-51 38t-29.5 56.5t-4 68.5zM108 544q5 36 23.5 68t45.5 56t61 38t71 14q36 0 66.5 -14t51 -38t30 -56t4.5 -68t-23.5 -68.5t-46 -56.5t-62 -38t-70.5 -14q-37 0 -67 14t-50.5 38t-29.5 56.5t-4 68.5zM204 544q-2 -17 2 -31.5
t13.5 -25.5t23 -17.5t30.5 -6.5q16 0 32 6.5t28.5 17.5t21 25.5t10.5 31.5q4 33 -16.5 56.5t-53.5 23.5q-17 0 -32 -6.5t-27.5 -17t-21 -25.5t-10.5 -31zM514 165q-2 -17 2 -31.5t13 -25.5t22.5 -17.5t30.5 -6.5q16 0 32 6.5t28.5 17.5t21 25.5t10.5 31.5q4 33 -16 56.5
t-53 23.5q-17 0 -32 -6.5t-27.5 -17t-21 -25.5t-10.5 -31zM901 165q-2 -17 2 -31.5t13 -25.5t22.5 -17.5t30.5 -6.5q16 0 32 6.5t28.5 17.5t21.5 25.5t11 31.5q4 33 -16.5 56.5t-53.5 23.5q-17 0 -32 -6.5t-27.5 -17t-21 -25.5t-10.5 -31zM656 740l77 -47l-515 -725l-70 43z
" />
    <glyph glyph-name="Scaron" unicode="&#x160;" 
d="M497 535q-16 24 -47 35.5t-60 11.5q-17 0 -36 -4t-35.5 -12.5t-28.5 -22.5t-15 -34q-3 -24 8.5 -39.5t33 -26t50 -18.5t57.5 -18t56.5 -24t47.5 -35.5t29.5 -54t2.5 -78.5q-8 -59 -36.5 -103t-70 -73t-93 -43t-106.5 -14q-69 0 -125 21t-101 68l129 122
q20 -32 53.5 -49.5t72.5 -17.5q19 0 39 4.5t37 13.5t28.5 23t14.5 33q5 32 -17.5 50.5t-57.5 31.5t-76 26t-75 35t-53.5 58t-11.5 95q8 57 36.5 100t70.5 72t93 43.5t103 14.5q60 0 113.5 -17t92.5 -57zM352 931l52 -78l73 78h135l-139 -144h-163l-96 144h138z" />
    <glyph glyph-name="guilsinglleft" unicode="&#x2039;" horiz-adv-x="296" 
d="M186 249l92 -173l-99 -61l-127 234l192 234l83 -61z" />
    <glyph glyph-name="OE" unicode="&#x152;" horiz-adv-x="1018" 
d="M725 432h264l-20 -144h-264l-20 -144h300l-20 -144h-531q-71 0 -140 20.5t-120 63.5t-77.5 110t-13.5 160q12 86 52 152t99 111t134 68t157 23h527l-20 -144h-288zM588 564h-51q-58 0 -108 -13t-88.5 -39.5t-63.5 -66t-32 -91.5q-7 -53 7 -92t45 -65.5t77 -39.5t104 -13
h51z" />
    <glyph glyph-name="Zcaron" unicode="&#x17d;" horiz-adv-x="630" 
d="M55 144l419 426h-346l19 138h535l-19 -138l-412 -426h364l-20 -144h-560zM380 931l52 -78l73 78h135l-139 -144h-163l-96 144h138z" />
    <glyph glyph-name="quoteleft" unicode="&#x2018;" horiz-adv-x="296" 
d="M228 708h128l-114 -282h-144z" />
    <glyph glyph-name="quoteright" unicode="&#x2019;" horiz-adv-x="296" 
d="M226 426h-128l114 282h144z" />
    <glyph glyph-name="quotedblleft" unicode="&#x201c;" horiz-adv-x="520" 
d="M233 708h128l-114 -282h-144zM447 708h128l-114 -282h-144z" />
    <glyph glyph-name="quotedblright" unicode="&#x201d;" horiz-adv-x="520" 
d="M445 426h-128l114 282h144zM231 426h-128l114 282h144z" />
    <glyph glyph-name="bullet" unicode="&#x2022;" horiz-adv-x="500" 
d="M122 354q5 37 23.5 69t46 56t61.5 38t71 14t67 -14t51 -38t30 -56t4 -69t-23.5 -69t-46 -56t-61.5 -38t-71 -14t-67 14t-51 38t-30 56t-4 69z" />
    <glyph glyph-name="endash" unicode="&#x2013;" horiz-adv-x="500" 
d="M43 309h500l-17 -120h-500z" />
    <glyph glyph-name="emdash" unicode="&#x2014;" horiz-adv-x="1000" 
d="M43 309h1000l-17 -120h-1000z" />
    <glyph glyph-name="tilde" unicode="&#x2dc;" horiz-adv-x="260" 
d="M14 570q7 25 20.5 50t32 44.5t42 31.5t51.5 12q25 0 44.5 -6t39.5 -15l26 -10t28 -5q17 0 28.5 10.5t20.5 25.5h78q-9 -29 -21.5 -54t-30.5 -43.5t-42 -29.5t-55 -11q-22 0 -40.5 6.5t-34.5 14.5q-17 8 -31 14.5t-29 6.5q-17 0 -29.5 -14t-18.5 -28h-79z" />
    <glyph glyph-name="trademark" unicode="&#x2122;" horiz-adv-x="1000" 
d="M245 612h-119l13 96h346l-13 -96h-119l-45 -316h-108zM573 708h145l60 -268l136 268h145l-58 -412h-108l38 268h-2l-136 -268h-70l-60 268h-2l-38 -268h-108z" />
    <glyph glyph-name="scaron" unicode="&#x161;" horiz-adv-x="463" 
d="M376 343q-27 41 -82 41q-19 0 -38 -9t-22 -31q-3 -18 15 -26.5t45 -15t58.5 -14t57.5 -23.5t40.5 -43.5t8.5 -73.5q-6 -47 -31 -77.5t-59.5 -49t-75.5 -26t-80 -7.5q-51 0 -101 14.5t-81 51.5l105 101q18 -26 41.5 -39.5t57.5 -13.5q26 0 48 7.5t25 27.5q3 19 -14.5 28.5
t-45 16t-59 14t-58 22.5t-41.5 42.5t-8 73.5q6 43 28 74t53.5 51t69.5 29.5t76 9.5q48 0 95 -14t76 -50zM266 708l52 -78l73 78h135l-139 -144h-163l-96 144h138z" />
    <glyph glyph-name="guilsinglright" unicode="&#x203a;" horiz-adv-x="296" 
d="M178 249l-91 173l99 61l126 -234l-191 -234l-83 61z" />
    <glyph glyph-name="oe" unicode="&#x153;" horiz-adv-x="944" 
d="M894 84q-42 -46 -100.5 -71t-117.5 -25q-63 0 -107 15.5t-73 53.5q-44 -39 -92.5 -54t-99.5 -15q-57 0 -103.5 18t-78.5 51.5t-46.5 80.5t-6.5 105t35.5 105t68.5 80.5t93 51.5t109 18q54 0 97.5 -18t74.5 -55q38 34 86 53.5t114 19.5q52 0 92 -18t65 -51.5t34.5 -80.5
t1.5 -105l-7 -47h-348q3 -43 29.5 -68.5t70.5 -25.5q37 0 64.5 16.5t50.5 42.5zM357 366q-57 0 -93.5 -34t-44.5 -89t19 -89t84 -34t93.5 34t44.5 89t-19 89t-84 34zM797 298q6 38 -16 65t-63 27q-25 0 -45 -8t-35 -20.5t-25 -29t-14 -34.5h198z" />
    <glyph glyph-name="zcaron" unicode="&#x17e;" horiz-adv-x="500" 
d="M55 150l282 216h-246l17 120h420l-20 -144l-296 -222h270l-16 -120h-432zM284 708l52 -78l73 78h135l-139 -144h-163l-96 144h138z" />
    <glyph glyph-name="Ydieresis" unicode="&#x178;" horiz-adv-x="648" 
d="M288 302l-209 406h194l113 -265l196 265h185l-323 -406l-42 -302h-156zM327 780q-18 0 -32 7t-23.5 19t-13.5 27.5t-1 32.5q2 16 10.5 31t21 26t28 18t32.5 7q35 0 58 -23t18 -59q-3 -18 -11.5 -33.5t-21.5 -27.5t-30 -18.5t-35 -6.5zM535 780q-18 0 -32 7t-23.5 19
t-13.5 27.5t-1 32.5q2 16 10.5 31t21 26t28 18t32.5 7q35 0 58 -23t18 -59q-3 -18 -11.5 -33.5t-21.5 -27.5t-30 -18.5t-35 -6.5z" />
    <glyph glyph-name="uni00A0" unicode="&#xa0;" horiz-adv-x="296" 
 />
    <glyph glyph-name="exclamdown" unicode="&#xa1;" horiz-adv-x="444" 
d="M182 252h150l-67 -474h-150zM370 400q-3 -19 -12.5 -36t-23.5 -29.5t-32 -19.5t-37 -7q-38 0 -61 27t-18 65q3 19 12.5 36t23.5 29.5t32 19.5t37 7q38 0 61 -27t18 -65z" />
    <glyph glyph-name="cent" unicode="&#xa2;" horiz-adv-x="592" 
d="M308 -12q-53 3 -93.5 24t-66 55t-36 79t-2.5 97q7 53 30 97t58 77t81 54t100 27l10 66h60l-10 -66q51 0 90 -14.5t74 -47.5l-111 -102q-17 20 -35 29t-35 9l-36 -258q11 0 32 6t57 37l76 -107q-21 -18 -46 -30t-49.5 -19t-47.5 -10t-40 -3l-10 -69h-60zM362 372
q-48 -9 -74.5 -45t-33.5 -83q-7 -46 10 -81t62 -49z" />
    <glyph glyph-name="sterling" unicode="&#xa3;" horiz-adv-x="592" 
d="M64 114h96l27 198h-96l15 102h96l10 71q6 45 28 87t58 75t85 53t110 20q57 0 110 -15t89 -53l-115 -107q-17 20 -41 31.5t-44 11.5q-33 0 -57 -11t-40 -28.5t-24.5 -40t-11.5 -45.5l-7 -49h156l-15 -102h-156l-27 -198h253l-16 -114h-499z" />
    <glyph glyph-name="currency" unicode="&#xa4;" horiz-adv-x="592" 
d="M113 202q-19 32 -26.5 70.5t-1.5 81.5t24.5 81.5t46.5 70.5l-42 49l68 59l42 -48q35 23 75 35.5t83 12.5t79 -12.5t65 -35.5l56 48l52 -59l-56 -49q39 -68 27 -152q-12 -85 -70 -152l42 -49l-68 -59l-43 48q-35 -23 -74.5 -35.5t-82.5 -12.5t-79.5 12.5t-65.5 35.5
l-55 -48l-52 59zM217 354q-4 -28 2.5 -52.5t21.5 -42.5t36.5 -28.5t48.5 -10.5t51.5 10.5t44.5 28.5t33.5 42.5t17.5 52.5t-2.5 52.5t-21.5 42.5t-36.5 28.5t-48.5 10.5t-51.5 -10.5t-44.5 -28.5t-33.5 -42.5t-17.5 -52.5z" />
    <glyph glyph-name="yen" unicode="&#xa5;" horiz-adv-x="592" 
d="M240 158h-169l13 96h169l7 48l-9 20h-157l13 96h100l-144 290h182l113 -264l187 264h182l-226 -290h100l-13 -96h-157l-15 -20l-7 -48h169l-13 -96h-169l-22 -158h-156z" />
    <glyph glyph-name="brokenbar" unicode="&#xa6;" horiz-adv-x="222" 
d="M268 675l-49 -350h-126l49 350h126zM198 175l-49 -350h-126l49 350h126z" />
    <glyph glyph-name="section" unicode="&#xa7;" horiz-adv-x="592" 
d="M467 545q-7 29 -30 45t-53 16q-24 0 -46.5 -13t-26.5 -40q-4 -25 17 -42t53.5 -32t71 -30.5t70 -37.5t50 -53.5t12.5 -76.5q-6 -42 -35 -77t-67 -53q23 -21 33 -52.5t5 -66.5q-7 -49 -35 -84t-67 -57t-84.5 -32t-85.5 -10q-37 0 -71 6t-62 21t-49 39t-33 60l137 63
q4 -36 34.5 -52.5t64.5 -16.5q12 0 26.5 2.5t27 8.5t22 16t11.5 25q3 24 -16.5 39.5t-51 30t-68.5 29.5t-67 37.5t-48 55t-11 80.5q7 51 34.5 86.5t72.5 61.5q-26 20 -38.5 49.5t-7.5 65.5q6 44 30 76t58 53t73.5 31t77.5 10q32 0 64.5 -5t60.5 -18t50 -34t33 -52zM400 192
q37 20 43 61q2 14 -2.5 25.5t-12.5 20t-19 15t-21 11.5l-108 55q-39 -20 -43 -59q-3 -18 2.5 -30.5t15.5 -22t23.5 -16.5t26.5 -13z" />
    <glyph glyph-name="dieresis" unicode="&#xa8;" horiz-adv-x="260" 
d="M103 558q-35 0 -55.5 25.5t-15.5 60.5q2 16 10.5 31t21.5 26t28.5 18t32.5 7q35 0 57.5 -23t17.5 -59t-32.5 -61t-64.5 -25zM311 558q-35 0 -55.5 25.5t-15.5 60.5q2 16 10.5 31t21.5 26t28.5 18t32.5 7q35 0 57.5 -23t17.5 -59t-32.5 -61t-64.5 -25z" />
    <glyph glyph-name="copyright" unicode="&#xa9;" horiz-adv-x="800" 
d="M630 300q-11 -39 -31.5 -68t-47 -49t-57.5 -30t-64 -10q-47 0 -82 16.5t-56.5 45.5t-29 68t-1.5 84q6 46 24.5 84.5t47 66.5t67.5 43.5t87 15.5q68 0 113 -36.5t46 -111.5h-94q-2 32 -22 45t-47 13q-49 0 -77.5 -32t-36.5 -86q-8 -56 12.5 -91t64.5 -35q32 0 57 15t33 52
h94zM77 354q11 77 50 144.5t96.5 118t129.5 80t149 29.5t140.5 -29.5t107 -80t63 -118t8.5 -144.5t-49.5 -144.5t-96.5 -118t-129.5 -80t-148.5 -29.5t-140.5 29.5t-107 80t-63.5 118t-9 144.5zM179 354q-8 -58 6 -109.5t45.5 -89.5t77.5 -60.5t102 -22.5t108 22.5t94 60.5
t70.5 89.5t36.5 109.5t-6 109.5t-45 89.5t-77 60.5t-102 22.5t-108.5 -22.5t-94.5 -60.5t-70.5 -89.5t-36.5 -109.5z" />
    <glyph glyph-name="ordfeminine" unicode="&#xaa;" horiz-adv-x="349" 
d="M295 468h-2q-14 -23 -41.5 -33t-57.5 -10q-22 0 -41.5 5.5t-33 17t-20.5 28t-4 38.5q5 38 30 59t58 31.5t69 12.5t64 2q3 18 -10 32.5t-39 14.5q-24 0 -45 -10t-39 -26l-45 49q30 23 69 35t77 12q43 0 69.5 -10t40 -28.5t16 -46t-2.5 -62.5l-21 -148h-96zM314 559h-18
q-11 0 -27 -1t-31 -5t-27 -12.5t-14 -22.5q-2 -17 11 -22t29 -5q29 0 50.5 16t23.5 33z" />
    <glyph glyph-name="guillemotleft" unicode="&#xab;" horiz-adv-x="538" 
d="M186 249l92 -173l-99 -61l-127 234l192 234l83 -61zM428 249l92 -173l-99 -61l-127 234l192 234l83 -61z" />
    <glyph glyph-name="logicalnot" unicode="&#xac;" horiz-adv-x="666" 
d="M528 336h-422l17 126h548l-45 -320h-126z" />
    <glyph glyph-name="uni00AD" unicode="&#xad;" horiz-adv-x="296" 
d="M297 189h-246l17 120h246z" />
    <glyph glyph-name="registered" unicode="&#xae;" horiz-adv-x="800" 
d="M334 553h138q10 0 26.5 -0.5t34.5 -4t35.5 -11t30.5 -21.5t19.5 -36t2.5 -53q-5 -30 -15.5 -49.5t-25 -32t-32 -19t-34.5 -8.5l78 -155h-105l-68 150h-17l-21 -150h-102zM412 391h41q9 0 19.5 1t20.5 5t17 12.5t9 23.5t-2.5 23.5t-13 12.5t-19 5t-19.5 1h-41zM77 354
q11 77 50 144.5t96.5 118t129.5 80t149 29.5t140.5 -29.5t107 -80t63 -118t8.5 -144.5t-49.5 -144.5t-96.5 -118t-129.5 -80t-148.5 -29.5t-140.5 29.5t-107 80t-63.5 118t-9 144.5zM179 354q-8 -58 6 -109.5t45.5 -89.5t77.5 -60.5t102 -22.5t108 22.5t94 60.5t70.5 89.5
t36.5 109.5t-6 109.5t-45 89.5t-77 60.5t-102 22.5t-108.5 -22.5t-94.5 -60.5t-70.5 -89.5t-36.5 -109.5z" />
    <glyph glyph-name="macron" unicode="&#xaf;" horiz-adv-x="260" 
d="M383 591h-340l13 96h340z" />
    <glyph glyph-name="degree" unicode="&#xb0;" horiz-adv-x="400" 
d="M264 460q18 0 35.5 7t31 19t22.5 28t12 34q5 37 -17 62.5t-59 25.5q-18 0 -35.5 -7t-31 -19t-22.5 -28t-11 -34q-5 -37 16.5 -62.5t58.5 -25.5zM252 376q-36 0 -65 13.5t-49 37t-29 54.5t-4 67t23 67t44.5 54.5t59.5 37t69 13.5t65 -13.5t49.5 -37t29.5 -54.5t4 -67
t-23 -67t-45 -54.5t-60 -37t-69 -13.5z" />
    <glyph glyph-name="plusminus" unicode="&#xb1;" horiz-adv-x="666" 
d="M122 449h211l18 128h126l-18 -128h211l-18 -126h-211l-18 -128h-126l18 128h-211zM80 155h548l-17 -126h-548z" />
    <glyph glyph-name="twosuperior" unicode="&#xb2;" horiz-adv-x="385" 
d="M77 378l208 158q16 12 32.5 26t18.5 29q2 21 -14.5 30t-39.5 9q-29 0 -49 -15.5t-25 -38.5l-101 6q16 72 68.5 105t124.5 33q70 0 111.5 -31t33.5 -89q-4 -26 -10.5 -43t-16 -30t-22.5 -23t-29 -21l-155 -108v-2h201l-12 -84h-337z" />
    <glyph glyph-name="threesuperior" unicode="&#xb3;" horiz-adv-x="385" 
d="M220 552h34q14 0 27.5 1.5t24.5 6.5t18.5 14t9.5 23q2 16 -11.5 24.5t-39.5 8.5q-24 0 -43 -11.5t-27 -32.5l-107 20q26 64 77 89t113 25q32 0 60.5 -7t49.5 -21t31.5 -35.5t6.5 -50.5q-5 -35 -29.5 -60.5t-66.5 -32.5l-1 -2q43 -5 63 -34t15 -66q-5 -32 -22.5 -56
t-43.5 -40t-59 -24t-69 -8q-66 0 -109 27t-49 91l112 22q2 -23 16 -36.5t43 -13.5t50 11t25 37q2 17 -4.5 26.5t-19 14t-29 5.5t-33.5 1h-25z" />
    <glyph glyph-name="acute" unicode="&#xb4;" horiz-adv-x="260" 
d="M230 708h204l-193 -144h-132z" />
    <glyph glyph-name="mu" unicode="&#xb5;" 
d="M521 0h-144l9 66h-2q-10 -14 -24.5 -28t-34 -25t-43.5 -18t-51 -7q-17 0 -30 3l-31 -219h-150l101 714h150l-34 -238q-3 -21 -5 -43.5t3 -41.5t19 -31t43 -12t48.5 10.5t31.5 28t18.5 39.5t9.5 46l34 242h150z" />
    <glyph glyph-name="paragraph" unicode="&#xb6;" horiz-adv-x="620" 
d="M286 359q-109 0 -159.5 45t-39.5 126q7 54 31 88.5t60 54.5t82 27.5t98 7.5h302l-118 -841h-108l105 745h-109l-105 -745h-108z" />
    <glyph glyph-name="periodcentered" unicode="&#xb7;" horiz-adv-x="296" 
d="M95 283q3 19 12.5 36t23.5 29.5t32 19.5t37 7q38 0 61 -27t18 -65q-3 -19 -12.5 -36t-23.5 -29.5t-32 -19.5t-37 -7q-38 0 -61 27t-18 65z" />
    <glyph glyph-name="cedilla" unicode="&#xb8;" horiz-adv-x="260" 
d="M118 -60q22 0 44 -2.5t39 -11t26 -25t5 -44.5q-4 -27 -21 -46t-39.5 -30t-47.5 -16t-44 -5q-30 0 -62.5 8.5t-57.5 21.5l32 47q11 -5 29 -11t44 -6q23 0 45.5 6t25.5 26q2 18 -14.5 26t-31.5 8q-10 0 -18.5 -2t-18.5 -6l-28 29l76 93h67z" />
    <glyph glyph-name="onesuperior" unicode="&#xb9;" horiz-adv-x="385" 
d="M268 606l-100 -75l-49 66l176 117h96l-60 -425h-108z" />
    <glyph glyph-name="ordmasculine" unicode="&#xba;" horiz-adv-x="397" 
d="M103 575q5 34 22.5 62t44 47.5t60 30.5t70.5 11t67.5 -11t51.5 -30.5t30.5 -47.5t4.5 -62q-5 -36 -22.5 -63.5t-44 -47t-60 -29.5t-70.5 -10t-67.5 10t-51.5 29.5t-30.5 47t-4.5 63.5zM205 575q-3 -27 13.5 -46.5t50.5 -19.5t56.5 19.5t26.5 46.5q5 28 -12.5 47.5
t-51.5 19.5t-56 -19.5t-27 -47.5z" />
    <glyph glyph-name="guillemotright" unicode="&#xbb;" horiz-adv-x="538" 
d="M420 249l-91 173l99 61l126 -234l-191 -234l-83 61zM178 249l-91 173l99 61l126 -234l-191 -234l-83 61z" />
    <glyph glyph-name="onequarter" unicode="&#xbc;" horiz-adv-x="889" 
d="M727 85h-209l11 78l236 262h118l-36 -256h57l-12 -84h-57l-11 -85h-108zM758 305h-2l-118 -136h101zM240 606l-100 -75l-49 66l176 117h96l-60 -425h-108zM698 740l77 -47l-515 -725l-70 43z" />
    <glyph glyph-name="onehalf" unicode="&#xbd;" horiz-adv-x="889" 
d="M240 606l-100 -75l-49 66l176 117h96l-60 -425h-108zM556 89l208 158q16 12 32.5 26t18.5 29q3 21 -14 30t-40 9q-29 0 -48.5 -15.5t-24.5 -38.5l-101 6q15 72 67.5 105t124.5 33q70 0 111.5 -31t33.5 -89q-3 -26 -9.5 -43t-16 -30t-22.5 -23t-29 -21l-155 -108l-1 -2
h201l-11 -84h-337zM698 740l77 -47l-515 -725l-70 43z" />
    <glyph glyph-name="threequarters" unicode="&#xbe;" horiz-adv-x="889" 
d="M207 552h34q14 0 27.5 1.5t24.5 6.5t18.5 14t9.5 23q2 16 -11.5 24.5t-39.5 8.5q-24 0 -43 -11.5t-27 -32.5l-106 20q12 32 31.5 53.5t44.5 35t53.5 19.5t59.5 6q32 0 60.5 -7t49.5 -21t31.5 -35.5t6.5 -50.5q-5 -35 -29.5 -60.5t-66.5 -32.5l-1 -2q43 -5 63 -34t15 -66
q-5 -32 -22.5 -56t-43.5 -40t-59 -24t-69 -8q-66 0 -109 27t-49 91l112 22q2 -23 16 -36.5t43 -13.5t50 11t25 37q2 17 -4.5 26.5t-19 14t-29 5.5t-33.5 1h-25zM731 85h-209l11 78l236 262h118l-36 -256h57l-12 -84h-57l-11 -85h-108zM762 305h-2l-118 -136h101zM722 740
l77 -47l-515 -725l-70 43z" />
    <glyph glyph-name="questiondown" unicode="&#xbf;" horiz-adv-x="556" 
d="M369 208q-5 -30 -16 -51t-32 -39q-32 -27 -58 -47t-45.5 -37.5t-31.5 -33t-14 -32.5q-5 -33 13 -51.5t49 -18.5q47 0 75.5 26t36.5 63l152 -10q-26 -106 -100.5 -161.5t-179.5 -55.5q-46 0 -85 12.5t-66.5 37.5t-40.5 62t-6 85q4 28 13.5 52t27 47t45 46.5t66.5 51.5
q26 18 36.5 35t12.5 34l4 29h150zM413 400q-3 -19 -12.5 -36t-23.5 -29.5t-32 -19.5t-37 -7q-38 0 -61 27t-18 65q3 19 12.5 36t23.5 29.5t32 19.5t37 7q38 0 61 -27t18 -65z" />
    <glyph glyph-name="Agrave" unicode="&#xc0;" horiz-adv-x="741" 
d="M404 708h129l209 -708h-176l-40 150h-275l-80 -150h-172zM435 502l-117 -220h173zM579 760h-132l-152 144h204z" />
    <glyph glyph-name="Aacute" unicode="&#xc1;" horiz-adv-x="741" 
d="M404 708h129l209 -708h-176l-40 150h-275l-80 -150h-172zM435 502l-117 -220h173zM499 904h204l-194 -144h-132z" />
    <glyph glyph-name="Acircumflex" unicode="&#xc2;" horiz-adv-x="741" 
d="M404 708h129l209 -708h-176l-40 150h-275l-80 -150h-172zM435 502l-117 -220h173zM538 760l-52 78l-73 -78h-135l140 144h163l95 -144h-138z" />
    <glyph glyph-name="Atilde" unicode="&#xc3;" horiz-adv-x="741" 
d="M404 708h129l209 -708h-176l-40 150h-275l-80 -150h-172zM435 502l-117 -220h173zM282 766q8 25 21.5 50t32 44.5t42 31.5t51.5 12q25 0 44 -6t40 -15q14 -5 26 -10t27 -5q17 0 29 10.5t21 25.5h78q-9 -29 -22 -54t-31 -43.5t-42 -29.5t-55 -11q-22 0 -40 6.5t-35 14.5
q-16 8 -30.5 14.5t-29.5 6.5q-17 0 -28.5 -14t-19.5 -28h-79z" />
    <glyph glyph-name="Adieresis" unicode="&#xc4;" horiz-adv-x="741" 
d="M404 708h129l209 -708h-176l-40 150h-275l-80 -150h-172zM435 502l-117 -220h173zM371 754q-18 0 -32 7t-23.5 19t-13.5 27.5t-1 32.5q2 16 10.5 31t21 26t28 18t32.5 7q35 0 58 -23t18 -59q-3 -18 -11.5 -33.5t-21.5 -27.5t-30 -18.5t-35 -6.5zM579 754q-18 0 -32 7
t-23.5 19t-13.5 27.5t-1 32.5q2 16 10.5 31t21 26t28 18t32.5 7q35 0 58 -23t18 -59q-3 -18 -11.5 -33.5t-21.5 -27.5t-30 -18.5t-35 -6.5z" />
    <glyph glyph-name="Aring" unicode="&#xc5;" horiz-adv-x="741" 
d="M404 708h129l209 -708h-176l-40 150h-275l-80 -150h-172zM435 502l-117 -220h173zM473 731q-23 0 -41.5 9t-31.5 24t-19 35t-3 43q3 22 14.5 42.5t29 35.5t38.5 24t44 9q22 0 41 -9t32.5 -24t19.5 -35.5t3 -42.5q-3 -23 -15 -43t-29.5 -35t-39 -24t-43.5 -9zM438 842
q-3 -21 10 -36t34 -15t38 15t20 36t-10 36t-34 15t-38 -15t-20 -36z" />
    <glyph glyph-name="AE" unicode="&#xc6;" horiz-adv-x="1037" 
d="M555 150h-263l-116 -150h-191l548 708h538l-20 -144h-282l-19 -132h258l-20 -144h-258l-20 -144h294l-20 -144h-450zM613 564h-17l-219 -282h196z" />
    <glyph glyph-name="Ccedilla" unicode="&#xc7;" horiz-adv-x="685" 
d="M608 524q-20 28 -51 43t-75 15t-84 -17t-71.5 -47.5t-53 -72.5t-28.5 -91q-7 -50 2.5 -91.5t32 -72t57 -47.5t76.5 -17q48 0 88 20t69 56l116 -97q-54 -63 -127 -93t-146 -30h-9.5t-9.5 1l-35 -43q22 0 44 -2.5t39 -11t26 -25t5 -44.5q-4 -27 -21 -46t-39.5 -30
t-47.5 -16t-44 -5q-30 0 -63 8.5t-58 21.5l32 47q11 -5 29.5 -11t44.5 -6q23 0 45.5 6t25.5 26q2 18 -14.5 26t-31.5 8q-10 0 -18.5 -2t-18.5 -6l-28 29l66 82q-65 12 -116 42.5t-84 77.5t-46.5 109t-2.5 136q12 85 50.5 154t96 117.5t131.5 74.5t157 26q30 0 61.5 -5.5
t61.5 -17.5t56.5 -32t44.5 -49z" />
    <glyph glyph-name="Egrave" unicode="&#xc8;" horiz-adv-x="630" 
d="M177 708h481l-20 -144h-325l-19 -132h307l-20 -144h-307l-20 -144h343l-20 -144h-499zM523 760h-132l-152 144h204z" />
    <glyph glyph-name="Eacute" unicode="&#xc9;" horiz-adv-x="630" 
d="M177 708h481l-20 -144h-325l-19 -132h307l-20 -144h-307l-20 -144h343l-20 -144h-499zM443 904h204l-194 -144h-132z" />
    <glyph glyph-name="Ecircumflex" unicode="&#xca;" horiz-adv-x="630" 
d="M177 708h481l-20 -144h-325l-19 -132h307l-20 -144h-307l-20 -144h343l-20 -144h-499zM482 760l-52 78l-73 -78h-135l140 144h163l95 -144h-138z" />
    <glyph glyph-name="Edieresis" unicode="&#xcb;" horiz-adv-x="630" 
d="M177 708h481l-20 -144h-325l-19 -132h307l-20 -144h-307l-20 -144h343l-20 -144h-499zM315 754q-18 0 -32 7t-23.5 19t-13.5 27.5t-1 32.5q2 16 10.5 31t21 26t28 18t32.5 7q35 0 58 -23t18 -59q-3 -18 -11.5 -33.5t-21.5 -27.5t-30 -18.5t-35 -6.5zM523 754q-18 0 -32 7
t-23.5 19t-13.5 27.5t-1 32.5q2 16 10.5 31t21 26t28 18t32.5 7q35 0 58 -23t18 -59q-3 -18 -11.5 -33.5t-21.5 -27.5t-30 -18.5t-35 -6.5z" />
    <glyph glyph-name="Igrave" unicode="&#xcc;" horiz-adv-x="296" 
d="M169 708h156l-99 -708h-156zM356 760h-132l-152 144h204z" />
    <glyph glyph-name="Iacute" unicode="&#xcd;" horiz-adv-x="296" 
d="M169 708h156l-99 -708h-156zM276 904h204l-194 -144h-132z" />
    <glyph glyph-name="Icircumflex" unicode="&#xce;" horiz-adv-x="296" 
d="M169 708h156l-99 -708h-156zM315 760l-52 78l-73 -78h-135l140 144h163l95 -144h-138z" />
    <glyph glyph-name="Idieresis" unicode="&#xcf;" horiz-adv-x="296" 
d="M169 708h156l-99 -708h-156zM148 754q-18 0 -32 7t-23.5 19t-13.5 27.5t-1 32.5q2 16 10.5 31t21 26t28 18t32.5 7q35 0 58 -23t18 -59q-3 -18 -11.5 -33.5t-21.5 -27.5t-30 -18.5t-35 -6.5zM356 754q-18 0 -32 7t-23.5 19t-13.5 27.5t-1 32.5q2 16 10.5 31t21 26t28 18
t32.5 7q35 0 58 -23t18 -59q-3 -18 -11.5 -33.5t-21.5 -27.5t-30 -18.5t-35 -6.5z" />
    <glyph glyph-name="Eth" unicode="&#xd0;" horiz-adv-x="759" 
d="M287 420h198l-15 -102h-198l-24 -174h81q54 0 102 11t85.5 36.5t62.5 67t34 101.5q7 52 -6.5 90.5t-43.5 63.5t-72.5 37.5t-91.5 12.5h-92zM116 318h-60l15 102h60l40 288h234q85 0 158.5 -19t125 -61.5t75 -110.5t10.5 -165q-12 -86 -53.5 -151.5t-102.5 -110
t-136.5 -67.5t-154.5 -23h-255z" />
    <glyph glyph-name="Ntilde" unicode="&#xd1;" horiz-adv-x="815" 
d="M171 708h212l232 -492h2l69 492h156l-99 -708h-204l-239 504h-2l-70 -504h-156zM319 766q8 25 21.5 50t32 44.5t42 31.5t51.5 12q25 0 44 -6t40 -15q14 -5 26 -10t27 -5q17 0 29 10.5t21 25.5h78q-9 -29 -22 -54t-31 -43.5t-42 -29.5t-55 -11q-22 0 -40 6.5t-35 14.5
q-16 8 -30.5 14.5t-29.5 6.5q-17 0 -28.5 -14t-19.5 -28h-79z" />
    <glyph glyph-name="Ograve" unicode="&#xd2;" horiz-adv-x="832" 
d="M83 354q12 85 50.5 154t96 117.5t131.5 74.5t157 26t149 -26t110 -74.5t63 -117.5t7 -154t-50 -154t-96 -117.5t-131.5 -74.5t-156.5 -26t-149.5 26t-110.5 74.5t-63 117.5t-7 154zM245 354q-7 -50 3 -91.5t34.5 -72t62.5 -47.5t88 -17t93 17t76 47.5t54.5 72t28.5 91.5
q7 49 -2.5 91t-34.5 72.5t-63 47.5t-88 17t-93 -17t-76 -47.5t-54.5 -72.5t-28.5 -91zM624 760h-132l-152 144h204z" />
    <glyph glyph-name="Oacute" unicode="&#xd3;" horiz-adv-x="832" 
d="M83 354q12 85 50.5 154t96 117.5t131.5 74.5t157 26t149 -26t110 -74.5t63 -117.5t7 -154t-50 -154t-96 -117.5t-131.5 -74.5t-156.5 -26t-149.5 26t-110.5 74.5t-63 117.5t-7 154zM245 354q-7 -50 3 -91.5t34.5 -72t62.5 -47.5t88 -17t93 17t76 47.5t54.5 72t28.5 91.5
q7 49 -2.5 91t-34.5 72.5t-63 47.5t-88 17t-93 -17t-76 -47.5t-54.5 -72.5t-28.5 -91zM544 904h204l-194 -144h-132z" />
    <glyph glyph-name="Ocircumflex" unicode="&#xd4;" horiz-adv-x="832" 
d="M83 354q12 85 50.5 154t96 117.5t131.5 74.5t157 26t149 -26t110 -74.5t63 -117.5t7 -154t-50 -154t-96 -117.5t-131.5 -74.5t-156.5 -26t-149.5 26t-110.5 74.5t-63 117.5t-7 154zM245 354q-7 -50 3 -91.5t34.5 -72t62.5 -47.5t88 -17t93 17t76 47.5t54.5 72t28.5 91.5
q7 49 -2.5 91t-34.5 72.5t-63 47.5t-88 17t-93 -17t-76 -47.5t-54.5 -72.5t-28.5 -91zM583 760l-52 78l-73 -78h-135l140 144h163l95 -144h-138z" />
    <glyph glyph-name="Otilde" unicode="&#xd5;" horiz-adv-x="832" 
d="M83 354q12 85 50.5 154t96 117.5t131.5 74.5t157 26t149 -26t110 -74.5t63 -117.5t7 -154t-50 -154t-96 -117.5t-131.5 -74.5t-156.5 -26t-149.5 26t-110.5 74.5t-63 117.5t-7 154zM245 354q-7 -50 3 -91.5t34.5 -72t62.5 -47.5t88 -17t93 17t76 47.5t54.5 72t28.5 91.5
q7 49 -2.5 91t-34.5 72.5t-63 47.5t-88 17t-93 -17t-76 -47.5t-54.5 -72.5t-28.5 -91zM327 766q8 25 21.5 50t32 44.5t42 31.5t51.5 12q25 0 44 -6t40 -15q14 -5 26 -10t27 -5q17 0 29 10.5t21 25.5h78q-9 -29 -22 -54t-31 -43.5t-42 -29.5t-55 -11q-22 0 -40 6.5t-35 14.5
q-16 8 -30.5 14.5t-29.5 6.5q-17 0 -28.5 -14t-19.5 -28h-79z" />
    <glyph glyph-name="Odieresis" unicode="&#xd6;" horiz-adv-x="832" 
d="M83 354q12 85 50.5 154t96 117.5t131.5 74.5t157 26t149 -26t110 -74.5t63 -117.5t7 -154t-50 -154t-96 -117.5t-131.5 -74.5t-156.5 -26t-149.5 26t-110.5 74.5t-63 117.5t-7 154zM245 354q-7 -50 3 -91.5t34.5 -72t62.5 -47.5t88 -17t93 17t76 47.5t54.5 72t28.5 91.5
q7 49 -2.5 91t-34.5 72.5t-63 47.5t-88 17t-93 -17t-76 -47.5t-54.5 -72.5t-28.5 -91zM416 754q-18 0 -32 7t-23.5 19t-13.5 27.5t-1 32.5q2 16 10.5 31t21 26t28 18t32.5 7q35 0 58 -23t18 -59q-3 -18 -11.5 -33.5t-21.5 -27.5t-30 -18.5t-35 -6.5zM624 754q-18 0 -32 7
t-23.5 19t-13.5 27.5t-1 32.5q2 16 10.5 31t21 26t28 18t32.5 7q35 0 58 -23t18 -59q-3 -18 -11.5 -33.5t-21.5 -27.5t-30 -18.5t-35 -6.5z" />
    <glyph glyph-name="multiply" unicode="&#xd7;" horiz-adv-x="666" 
d="M237 570l152 -175l196 174l77 -86l-198 -180l156 -173l-105 -93l-152 176l-201 -177l-77 86l199 181l-154 172z" />
    <glyph glyph-name="Oslash" unicode="&#xd8;" horiz-adv-x="832" 
d="M140 99q-38 48 -53 112.5t-4 142.5q12 85 50.5 154t96 117.5t131.5 74.5t157 26q130 0 218 -64l106 100l48 -49l-104 -98q40 -48 56 -114t5 -147q-12 -85 -50 -154t-96 -117.5t-131.5 -74.5t-156.5 -26q-69 0 -125.5 18t-97.5 50l-108 -101l-49 48zM616 548
q-48 34 -119 34q-50 0 -93 -17t-76 -47.5t-54.5 -72.5t-28.5 -91q-11 -79 20 -137zM310 164q47 -38 123 -38q50 0 93 17t76 47.5t54.5 72t28.5 91.5q6 42 -0.5 78.5t-23.5 64.5z" />
    <glyph glyph-name="Ugrave" unicode="&#xd9;" horiz-adv-x="741" 
d="M707 273q-9 -63 -35.5 -116t-69.5 -92t-102 -61t-132 -22q-74 0 -127 22t-85 61t-43.5 92t-2.5 116l61 435h156l-60 -429q-5 -33 1.5 -61t23 -48.5t41 -32t55.5 -11.5t58.5 11.5t49.5 32t36.5 48.5t19.5 61l60 429h156zM579 760h-132l-152 144h204z" />
    <glyph glyph-name="Uacute" unicode="&#xda;" horiz-adv-x="741" 
d="M707 273q-9 -63 -35.5 -116t-69.5 -92t-102 -61t-132 -22q-74 0 -127 22t-85 61t-43.5 92t-2.5 116l61 435h156l-60 -429q-5 -33 1.5 -61t23 -48.5t41 -32t55.5 -11.5t58.5 11.5t49.5 32t36.5 48.5t19.5 61l60 429h156zM499 904h204l-194 -144h-132z" />
    <glyph glyph-name="Ucircumflex" unicode="&#xdb;" horiz-adv-x="741" 
d="M707 273q-9 -63 -35.5 -116t-69.5 -92t-102 -61t-132 -22q-74 0 -127 22t-85 61t-43.5 92t-2.5 116l61 435h156l-60 -429q-5 -33 1.5 -61t23 -48.5t41 -32t55.5 -11.5t58.5 11.5t49.5 32t36.5 48.5t19.5 61l60 429h156zM538 760l-52 78l-73 -78h-135l140 144h163l95 -144
h-138z" />
    <glyph glyph-name="Udieresis" unicode="&#xdc;" horiz-adv-x="741" 
d="M707 273q-9 -63 -35.5 -116t-69.5 -92t-102 -61t-132 -22q-74 0 -127 22t-85 61t-43.5 92t-2.5 116l61 435h156l-60 -429q-5 -33 1.5 -61t23 -48.5t41 -32t55.5 -11.5t58.5 11.5t49.5 32t36.5 48.5t19.5 61l60 429h156zM371 754q-18 0 -32 7t-23.5 19t-13.5 27.5t-1 32.5
q2 16 10.5 31t21 26t28 18t32.5 7q35 0 58 -23t18 -59q-3 -18 -11.5 -33.5t-21.5 -27.5t-30 -18.5t-35 -6.5zM579 754q-18 0 -32 7t-23.5 19t-13.5 27.5t-1 32.5q2 16 10.5 31t21 26t28 18t32.5 7q35 0 58 -23t18 -59q-3 -18 -11.5 -33.5t-21.5 -27.5t-30 -18.5t-35 -6.5z
" />
    <glyph glyph-name="Yacute" unicode="&#xdd;" horiz-adv-x="648" 
d="M288 302l-209 406h194l113 -265l196 265h185l-323 -406l-42 -302h-156zM455 930h204l-194 -144h-132z" />
    <glyph glyph-name="Thorn" unicode="&#xde;" horiz-adv-x="630" 
d="M171 708h156l-18 -126h107q55 0 102.5 -10t81 -34.5t49 -66t6.5 -104.5q-9 -62 -34.5 -104t-64 -67t-88 -35.5t-105.5 -10.5h-114l-21 -150h-156zM267 282h104q21 0 41 4t37 13.5t29 26t15 41.5q4 27 -6.5 43.5t-28.5 25.5t-41.5 11.5t-45.5 2.5h-80z" />
    <glyph glyph-name="germandbls" unicode="&#xdf;" horiz-adv-x="630" 
d="M125 513q35 255 291 255q42 0 82 -10.5t70 -33t45.5 -57t8.5 -82.5q-8 -58 -38 -98t-87 -62v-2q38 -8 64.5 -26.5t42.5 -45.5t20.5 -61t-0.5 -73q-8 -53 -31.5 -95.5t-59.5 -72t-81.5 -45.5t-97.5 -16q-48 0 -91 12l17 122q24 -8 48 -8q28 0 54 7t47 21.5t35 36.5t18 52
q4 32 -3 55t-23 38t-40 22t-54 7h-20l18 126h12q38 0 67.5 20t34.5 59q3 19 -3 33.5t-17 24.5t-26.5 15t-33.5 5q-46 0 -77.5 -26.5t-38.5 -71.5l-75 -538h-150z" />
    <glyph glyph-name="agrave" unicode="&#xe0;" horiz-adv-x="537" 
d="M366 61h-2q-30 -39 -74 -56t-90 -17q-34 0 -64 9.5t-51.5 28.5t-31.5 47t-5 65q9 63 47.5 97.5t91 51t110 19.5t104.5 3q5 40 -20 63.5t-64 23.5q-37 0 -69.5 -15.5t-60.5 -42.5l-68 82q47 39 105.5 58.5t118.5 19.5q66 0 106.5 -16.5t61.5 -48.5t24.5 -78.5t-5.5 -107.5
l-34 -247h-138zM350 213q-17 0 -42.5 -1.5t-50 -8.5t-43 -21t-21.5 -39q-2 -14 3 -23.5t14 -16.5t21.5 -10t24.5 -3q22 0 43.5 6t39 17t29.5 28t15 40l4 32h-37zM450 564h-132l-153 144h204z" />
    <glyph glyph-name="aacute" unicode="&#xe1;" horiz-adv-x="537" 
d="M366 61h-2q-30 -39 -74 -56t-90 -17q-34 0 -64 9.5t-51.5 28.5t-31.5 47t-5 65q9 63 47.5 97.5t91 51t110 19.5t104.5 3q5 40 -20 63.5t-64 23.5q-37 0 -69.5 -15.5t-60.5 -42.5l-68 82q47 39 105.5 58.5t118.5 19.5q66 0 106.5 -16.5t61.5 -48.5t24.5 -78.5t-5.5 -107.5
l-34 -247h-138zM350 213q-17 0 -42.5 -1.5t-50 -8.5t-43 -21t-21.5 -39q-2 -14 3 -23.5t14 -16.5t21.5 -10t24.5 -3q22 0 43.5 6t39 17t29.5 28t15 40l4 32h-37zM369 708h204l-193 -144h-132z" />
    <glyph glyph-name="acircumflex" unicode="&#xe2;" horiz-adv-x="537" 
d="M366 61h-2q-30 -39 -74 -56t-90 -17q-34 0 -64 9.5t-51.5 28.5t-31.5 47t-5 65q9 63 47.5 97.5t91 51t110 19.5t104.5 3q5 40 -20 63.5t-64 23.5q-37 0 -69.5 -15.5t-60.5 -42.5l-68 82q47 39 105.5 58.5t118.5 19.5q66 0 106.5 -16.5t61.5 -48.5t24.5 -78.5t-5.5 -107.5
l-34 -247h-138zM350 213q-17 0 -42.5 -1.5t-50 -8.5t-43 -21t-21.5 -39q-2 -14 3 -23.5t14 -16.5t21.5 -10t24.5 -3q22 0 43.5 6t39 17t29.5 28t15 40l4 32h-37zM409 564l-52 78l-73 -78h-135l139 144h163l96 -144h-138z" />
    <glyph glyph-name="atilde" unicode="&#xe3;" horiz-adv-x="537" 
d="M366 61h-2q-30 -39 -74 -56t-90 -17q-34 0 -64 9.5t-51.5 28.5t-31.5 47t-5 65q9 63 47.5 97.5t91 51t110 19.5t104.5 3q5 40 -20 63.5t-64 23.5q-37 0 -69.5 -15.5t-60.5 -42.5l-68 82q47 39 105.5 58.5t118.5 19.5q66 0 106.5 -16.5t61.5 -48.5t24.5 -78.5t-5.5 -107.5
l-34 -247h-138zM350 213q-17 0 -42.5 -1.5t-50 -8.5t-43 -21t-21.5 -39q-2 -14 3 -23.5t14 -16.5t21.5 -10t24.5 -3q22 0 43.5 6t39 17t29.5 28t15 40l4 32h-37zM153 570q7 25 20.5 50t32 44.5t42 31.5t51.5 12q25 0 44.5 -6t39.5 -15l26 -10t28 -5q17 0 28.5 10.5
t20.5 25.5h78q-9 -29 -21.5 -54t-30.5 -43.5t-42 -29.5t-55 -11q-22 0 -40.5 6.5t-34.5 14.5q-17 8 -31 14.5t-29 6.5q-17 0 -29.5 -14t-18.5 -28h-79z" />
    <glyph glyph-name="adieresis" unicode="&#xe4;" horiz-adv-x="537" 
d="M366 61h-2q-30 -39 -74 -56t-90 -17q-34 0 -64 9.5t-51.5 28.5t-31.5 47t-5 65q9 63 47.5 97.5t91 51t110 19.5t104.5 3q5 40 -20 63.5t-64 23.5q-37 0 -69.5 -15.5t-60.5 -42.5l-68 82q47 39 105.5 58.5t118.5 19.5q66 0 106.5 -16.5t61.5 -48.5t24.5 -78.5t-5.5 -107.5
l-34 -247h-138zM350 213q-17 0 -42.5 -1.5t-50 -8.5t-43 -21t-21.5 -39q-2 -14 3 -23.5t14 -16.5t21.5 -10t24.5 -3q22 0 43.5 6t39 17t29.5 28t15 40l4 32h-37zM242 558q-35 0 -55.5 25.5t-15.5 60.5q2 16 10.5 31t21.5 26t28.5 18t32.5 7q35 0 57.5 -23t17.5 -59
t-32.5 -61t-64.5 -25zM450 558q-35 0 -55.5 25.5t-15.5 60.5q2 16 10.5 31t21.5 26t28.5 18t32.5 7q35 0 57.5 -23t17.5 -59t-32.5 -61t-64.5 -25z" />
    <glyph glyph-name="aring" unicode="&#xe5;" horiz-adv-x="537" 
d="M366 61h-2q-30 -39 -74 -56t-90 -17q-34 0 -64 9.5t-51.5 28.5t-31.5 47t-5 65q9 63 47.5 97.5t91 51t110 19.5t104.5 3q5 40 -20 63.5t-64 23.5q-37 0 -69.5 -15.5t-60.5 -42.5l-68 82q47 39 105.5 58.5t118.5 19.5q66 0 106.5 -16.5t61.5 -48.5t24.5 -78.5t-5.5 -107.5
l-34 -247h-138zM350 213q-17 0 -42.5 -1.5t-50 -8.5t-43 -21t-21.5 -39q-2 -14 3 -23.5t14 -16.5t21.5 -10t24.5 -3q22 0 43.5 6t39 17t29.5 28t15 40l4 32h-37zM345 545q-23 0 -42 9t-32 24t-18.5 35t-2.5 43t14.5 43t28.5 35t38.5 24t44.5 9t42 -9t32 -24t19 -35t3 -43
t-15 -43t-29 -35t-38.5 -24t-44.5 -9zM310 656q-3 -21 10 -36t34 -15t38 15t20 36t-10 36t-34 15t-38 -15t-20 -36z" />
    <glyph glyph-name="ae" unicode="&#xe6;" horiz-adv-x="852" 
d="M119 420q47 39 105.5 58.5t118.5 19.5q43 0 83 -14t67 -45q35 29 79 44t92 15q52 0 92 -18t65 -51.5t34.5 -80.5t1.5 -105l-7 -47h-348q3 -43 29.5 -68.5t70.5 -25.5q37 0 64.5 16.5t50.5 42.5l94 -77q-42 -46 -100.5 -71t-117.5 -25q-60 0 -109 17t-74 62
q-38 -44 -92 -61.5t-118 -17.5q-34 0 -64 9.5t-51.5 28.5t-31.5 47t-5 65q8 58 44.5 90.5t85 48t101 18.5t93.5 3h18q7 44 -12.5 71t-60.5 27q-37 0 -69.5 -15.5t-60.5 -42.5zM192 139q-2 -17 4 -26.5t16.5 -14.5t24 -6.5t25.5 -1.5q54 0 80.5 29t33.5 77h-18q-17 0 -44 -1
t-53 -6t-46 -17t-23 -33zM714 298q6 38 -16 65t-63 27q-25 0 -45 -8t-35 -20.5t-25 -29t-14 -34.5h198z" />
    <glyph glyph-name="ccedilla" unicode="&#xe7;" horiz-adv-x="482" 
d="M428 329q-9 16 -27.5 26.5t-41.5 10.5q-57 0 -93 -34t-44 -89t18.5 -89t83.5 -34q25 0 45 11t35 26l84 -104q-41 -36 -90 -50.5t-92 -14.5q-7 0 -9 1l-40 -49q22 0 44 -2.5t39 -11t26 -25t5 -44.5q-4 -27 -21 -46t-39.5 -30t-47.5 -16t-44 -5q-30 0 -63 8.5t-58 21.5
l32 47q11 -5 29.5 -11t44.5 -6q23 0 45.5 6t25.5 26q2 18 -14.5 26t-31.5 8q-10 0 -18.5 -2t-18.5 -6l-28 29l73 90q-42 9 -75.5 30.5t-56 53t-31.5 72.5t-2 90q8 58 35.5 105t68.5 80.5t93 51.5t108 18q43 0 88.5 -14.5t75.5 -50.5z" />
    <glyph glyph-name="egrave" unicode="&#xe8;" 
d="M524 84q-42 -46 -100.5 -71t-117.5 -25q-56 0 -103 18t-78.5 51.5t-46 80.5t-6.5 105t35.5 105t68.5 80.5t93 51.5t108 18q52 0 92 -18t65 -51.5t34.5 -80.5t1.5 -105l-7 -47h-348q3 -43 29.5 -68.5t70.5 -25.5q37 0 64.5 16.5t50.5 42.5zM427 298q6 38 -16 65t-63 27
q-25 0 -45 -8t-35 -20.5t-25 -29t-14 -34.5h198zM468 564h-132l-153 144h204z" />
    <glyph glyph-name="eacute" unicode="&#xe9;" 
d="M524 84q-42 -46 -100.5 -71t-117.5 -25q-56 0 -103 18t-78.5 51.5t-46 80.5t-6.5 105t35.5 105t68.5 80.5t93 51.5t108 18q52 0 92 -18t65 -51.5t34.5 -80.5t1.5 -105l-7 -47h-348q3 -43 29.5 -68.5t70.5 -25.5q37 0 64.5 16.5t50.5 42.5zM427 298q6 38 -16 65t-63 27
q-25 0 -45 -8t-35 -20.5t-25 -29t-14 -34.5h198zM387 708h204l-193 -144h-132z" />
    <glyph glyph-name="ecircumflex" unicode="&#xea;" 
d="M524 84q-42 -46 -100.5 -71t-117.5 -25q-56 0 -103 18t-78.5 51.5t-46 80.5t-6.5 105t35.5 105t68.5 80.5t93 51.5t108 18q52 0 92 -18t65 -51.5t34.5 -80.5t1.5 -105l-7 -47h-348q3 -43 29.5 -68.5t70.5 -25.5q37 0 64.5 16.5t50.5 42.5zM427 298q6 38 -16 65t-63 27
q-25 0 -45 -8t-35 -20.5t-25 -29t-14 -34.5h198zM427 564l-52 78l-73 -78h-135l139 144h163l96 -144h-138z" />
    <glyph glyph-name="edieresis" unicode="&#xeb;" 
d="M524 84q-42 -46 -100.5 -71t-117.5 -25q-56 0 -103 18t-78.5 51.5t-46 80.5t-6.5 105t35.5 105t68.5 80.5t93 51.5t108 18q52 0 92 -18t65 -51.5t34.5 -80.5t1.5 -105l-7 -47h-348q3 -43 29.5 -68.5t70.5 -25.5q37 0 64.5 16.5t50.5 42.5zM427 298q6 38 -16 65t-63 27
q-25 0 -45 -8t-35 -20.5t-25 -29t-14 -34.5h198zM260 558q-35 0 -55.5 25.5t-15.5 60.5q2 16 10.5 31t21.5 26t28.5 18t32.5 7q35 0 57.5 -23t17.5 -59t-32.5 -61t-64.5 -25zM468 558q-35 0 -55.5 25.5t-15.5 60.5q2 16 10.5 31t21.5 26t28.5 18t32.5 7q35 0 57.5 -23
t17.5 -59t-32.5 -61t-64.5 -25z" />
    <glyph glyph-name="igrave" unicode="&#xec;" horiz-adv-x="260" 
d="M123 486h150l-68 -486h-150zM311 564h-132l-153 144h204z" />
    <glyph glyph-name="iacute" unicode="&#xed;" horiz-adv-x="260" 
d="M123 486h150l-68 -486h-150zM230 708h204l-193 -144h-132z" />
    <glyph glyph-name="icircumflex" unicode="&#xee;" horiz-adv-x="260" 
d="M123 486h150l-68 -486h-150zM270 564l-52 78l-73 -78h-135l139 144h163l96 -144h-138z" />
    <glyph glyph-name="idieresis" unicode="&#xef;" horiz-adv-x="260" 
d="M123 486h150l-68 -486h-150zM103 558q-35 0 -55.5 25.5t-15.5 60.5q2 16 10.5 31t21.5 26t28.5 18t32.5 7q35 0 57.5 -23t17.5 -59t-32.5 -61t-64.5 -25zM311 558q-35 0 -55.5 25.5t-15.5 60.5q2 16 10.5 31t21.5 26t28.5 18t32.5 7q35 0 57.5 -23t17.5 -59t-32.5 -61
t-64.5 -25z" />
    <glyph glyph-name="eth" unicode="&#xf0;" horiz-adv-x="610" 
d="M625 710l-130 -51q20 -25 45 -60t45 -81.5t29.5 -104.5t-0.5 -129q-9 -68 -34.5 -123t-65 -93.5t-92.5 -59.5t-119 -20q-56 0 -103 18t-78.5 51.5t-46 80.5t-6.5 105t36 105t67.5 80.5t86.5 51.5t93 18q26 0 51.5 -4.5t43.5 -21.5l2 2q-8 14 -19.5 31.5t-24 35.5
t-25.5 34.5t-24 27.5l-112 -45l-63 68l115 46q-8 11 -26.5 29t-34.5 30l132 70q20 -17 37 -35t33 -37l121 48zM219 243q-8 -55 18.5 -89t83.5 -34t93.5 34t44.5 89t-19 89t-84 34t-93 -34t-44 -89z" />
    <glyph glyph-name="ntilde" unicode="&#xf1;" 
d="M121 486h144l-9 -66h2q9 14 24 28t34 25t43 18t51 7q57 0 90 -17.5t48 -48.5t16 -73t-6 -91l-37 -268h-150l33 238q3 21 5 43.5t-3 41.5t-19 31t-43 12t-48.5 -10.5t-31.5 -28t-18 -39.5t-9 -46l-34 -242h-150zM171 570q7 25 20.5 50t32 44.5t42 31.5t51.5 12
q25 0 44.5 -6t39.5 -15l26 -10t28 -5q17 0 28.5 10.5t20.5 25.5h78q-9 -29 -21.5 -54t-30.5 -43.5t-42 -29.5t-55 -11q-22 0 -40.5 6.5t-34.5 14.5q-17 8 -31 14.5t-29 6.5q-17 0 -29.5 -14t-18.5 -28h-79z" />
    <glyph glyph-name="ograve" unicode="&#xf2;" horiz-adv-x="610" 
d="M69 243q8 58 35.5 105t68.5 80.5t93 51.5t108 18t103 -18t79 -51.5t46.5 -80.5t6.5 -105t-36 -105t-69 -80.5t-93 -51.5t-108 -18t-103 18t-78.5 51.5t-46 80.5t-6.5 105zM219 243q-8 -55 18.5 -89t83.5 -34t93.5 34t44.5 89t-19 89t-84 34t-93 -34t-44 -89zM486 564
h-132l-153 144h204z" />
    <glyph glyph-name="oacute" unicode="&#xf3;" horiz-adv-x="610" 
d="M69 243q8 58 35.5 105t68.5 80.5t93 51.5t108 18t103 -18t79 -51.5t46.5 -80.5t6.5 -105t-36 -105t-69 -80.5t-93 -51.5t-108 -18t-103 18t-78.5 51.5t-46 80.5t-6.5 105zM219 243q-8 -55 18.5 -89t83.5 -34t93.5 34t44.5 89t-19 89t-84 34t-93 -34t-44 -89zM405 708h204
l-193 -144h-132z" />
    <glyph glyph-name="ocircumflex" unicode="&#xf4;" horiz-adv-x="610" 
d="M69 243q8 58 35.5 105t68.5 80.5t93 51.5t108 18t103 -18t79 -51.5t46.5 -80.5t6.5 -105t-36 -105t-69 -80.5t-93 -51.5t-108 -18t-103 18t-78.5 51.5t-46 80.5t-6.5 105zM219 243q-8 -55 18.5 -89t83.5 -34t93.5 34t44.5 89t-19 89t-84 34t-93 -34t-44 -89zM445 564
l-52 78l-73 -78h-135l139 144h163l96 -144h-138z" />
    <glyph glyph-name="otilde" unicode="&#xf5;" horiz-adv-x="610" 
d="M69 243q8 58 35.5 105t68.5 80.5t93 51.5t108 18t103 -18t79 -51.5t46.5 -80.5t6.5 -105t-36 -105t-69 -80.5t-93 -51.5t-108 -18t-103 18t-78.5 51.5t-46 80.5t-6.5 105zM219 243q-8 -55 18.5 -89t83.5 -34t93.5 34t44.5 89t-19 89t-84 34t-93 -34t-44 -89zM189 570
q7 25 20.5 50t32 44.5t42 31.5t51.5 12q25 0 44.5 -6t39.5 -15l26 -10t28 -5q17 0 28.5 10.5t20.5 25.5h78q-9 -29 -21.5 -54t-30.5 -43.5t-42 -29.5t-55 -11q-22 0 -40.5 6.5t-34.5 14.5q-17 8 -31 14.5t-29 6.5q-17 0 -29.5 -14t-18.5 -28h-79z" />
    <glyph glyph-name="odieresis" unicode="&#xf6;" horiz-adv-x="610" 
d="M69 243q8 58 35.5 105t68.5 80.5t93 51.5t108 18t103 -18t79 -51.5t46.5 -80.5t6.5 -105t-36 -105t-69 -80.5t-93 -51.5t-108 -18t-103 18t-78.5 51.5t-46 80.5t-6.5 105zM219 243q-8 -55 18.5 -89t83.5 -34t93.5 34t44.5 89t-19 89t-84 34t-93 -34t-44 -89zM278 558
q-35 0 -55.5 25.5t-15.5 60.5q2 16 10.5 31t21.5 26t28.5 18t32.5 7q35 0 57.5 -23t17.5 -59t-32.5 -61t-64.5 -25zM486 558q-35 0 -55.5 25.5t-15.5 60.5q2 16 10.5 31t21.5 26t28.5 18t32.5 7q35 0 57.5 -23t17.5 -59t-32.5 -61t-64.5 -25z" />
    <glyph glyph-name="divide" unicode="&#xf7;" horiz-adv-x="666" 
d="M110 366h548l-18 -126h-548zM263 114q2 18 11 33.5t22.5 27t30 18.5t34.5 7t32.5 -7t24.5 -18.5t14.5 -27t2.5 -33.5q-3 -18 -12 -33.5t-22.5 -27t-30 -18.5t-34.5 -7q-35 0 -56.5 25.5t-16.5 60.5zM316 492q2 18 11 33.5t22.5 27t30 18.5t34.5 7t32.5 -7t24.5 -18.5
t14.5 -27t2.5 -33.5q-3 -18 -12 -33.5t-22 -27t-29.5 -18.5t-34.5 -7t-32.5 7t-24.5 18.5t-15 27t-2 33.5z" />
    <glyph glyph-name="oslash" unicode="&#xf8;" horiz-adv-x="610" 
d="M106 76q-24 32 -34.5 74t-2.5 93q8 58 35.5 105t68.5 80.5t93 51.5t108 18q48 0 88 -13t71 -36l76 67l41 -45l-76 -66q23 -32 32.5 -73t2.5 -89q-8 -58 -36 -105t-69 -80.5t-93 -51.5t-108 -18q-90 0 -153 46l-83 -73l-41 45zM419 350q-26 16 -63 16q-57 0 -93 -34
t-44 -89q-6 -36 6 -63zM264 134q25 -14 57 -14q57 0 93.5 34t44.5 89q4 29 -4 57z" />
    <glyph glyph-name="ugrave" unicode="&#xf9;" 
d="M521 0h-144l9 66h-2q-10 -14 -24.5 -28t-34 -25t-43.5 -18t-51 -7q-57 0 -90 17.5t-48 48.5t-16 73t6 91l38 268h150l-34 -238q-3 -21 -5 -43.5t3 -41.5t19 -31t43 -12t48.5 10.5t31.5 28t18.5 39.5t9.5 46l34 242h150zM468 564h-132l-153 144h204z" />
    <glyph glyph-name="uacute" unicode="&#xfa;" 
d="M521 0h-144l9 66h-2q-10 -14 -24.5 -28t-34 -25t-43.5 -18t-51 -7q-57 0 -90 17.5t-48 48.5t-16 73t6 91l38 268h150l-34 -238q-3 -21 -5 -43.5t3 -41.5t19 -31t43 -12t48.5 10.5t31.5 28t18.5 39.5t9.5 46l34 242h150zM387 708h204l-193 -144h-132z" />
    <glyph glyph-name="ucircumflex" unicode="&#xfb;" 
d="M521 0h-144l9 66h-2q-10 -14 -24.5 -28t-34 -25t-43.5 -18t-51 -7q-57 0 -90 17.5t-48 48.5t-16 73t6 91l38 268h150l-34 -238q-3 -21 -5 -43.5t3 -41.5t19 -31t43 -12t48.5 10.5t31.5 28t18.5 39.5t9.5 46l34 242h150zM427 564l-52 78l-73 -78h-135l139 144h163l96 -144
h-138z" />
    <glyph glyph-name="udieresis" unicode="&#xfc;" 
d="M521 0h-144l9 66h-2q-10 -14 -24.5 -28t-34 -25t-43.5 -18t-51 -7q-57 0 -90 17.5t-48 48.5t-16 73t6 91l38 268h150l-34 -238q-3 -21 -5 -43.5t3 -41.5t19 -31t43 -12t48.5 10.5t31.5 28t18.5 39.5t9.5 46l34 242h150zM260 558q-35 0 -55.5 25.5t-15.5 60.5
q2 16 10.5 31t21.5 26t28.5 18t32.5 7q35 0 57.5 -23t17.5 -59t-32.5 -61t-64.5 -25zM468 558q-35 0 -55.5 25.5t-15.5 60.5q2 16 10.5 31t21.5 26t28.5 18t32.5 7q35 0 57.5 -23t17.5 -59t-32.5 -61t-64.5 -25z" />
    <glyph glyph-name="yacute" unicode="&#xfd;" horiz-adv-x="556" 
d="M321 -79q-20 -39 -38 -69t-42.5 -50.5t-59 -31t-88.5 -10.5q-58 0 -109 18l37 123q31 -15 67 -15q25 0 42 5.5t29 16t21 25.5t20 35l15 28l-144 490h162l80 -321h2l152 321h154zM378 708h204l-193 -144h-132z" />
    <glyph glyph-name="thorn" unicode="&#xfe;" horiz-adv-x="630" 
d="M173 756h150l-46 -322h2q22 29 63 46.5t83 17.5q54 0 95.5 -18.5t68.5 -52t37.5 -79.5t2.5 -101q-7 -51 -29 -97.5t-55.5 -82.5t-77.5 -57.5t-96 -21.5q-47 0 -86 14.5t-59 49.5h-2l-40 -280h-150zM239 243q-8 -55 18.5 -89t83.5 -34t93.5 34t44.5 89t-19 89t-84 34
t-93 -34t-44 -89z" />
    <glyph glyph-name="ydieresis" unicode="&#xff;" horiz-adv-x="556" 
d="M321 -79q-20 -39 -38 -69t-42.5 -50.5t-59 -31t-88.5 -10.5q-58 0 -109 18l37 123q31 -15 67 -15q25 0 42 5.5t29 16t21 25.5t20 35l15 28l-144 490h162l80 -321h2l152 321h154zM251 558q-35 0 -55.5 25.5t-15.5 60.5q2 16 10.5 31t21.5 26t28.5 18t32.5 7q35 0 57.5 -23
t17.5 -59t-32.5 -61t-64.5 -25zM459 558q-35 0 -55.5 25.5t-15.5 60.5q2 16 10.5 31t21.5 26t28.5 18t32.5 7q35 0 57.5 -23t17.5 -59t-32.5 -61t-64.5 -25z" />
    <glyph glyph-name="Amacron" unicode="&#x100;" horiz-adv-x="741" 
d="M404 708h129l209 -708h-176l-40 150h-275l-80 -150h-172zM435 502l-117 -220h173zM645 787h-340l14 96h340z" />
    <glyph glyph-name="amacron" unicode="&#x101;" horiz-adv-x="537" 
d="M366 61h-2q-30 -39 -74 -56t-90 -17q-34 0 -64 9.5t-51.5 28.5t-31.5 47t-5 65q9 63 47.5 97.5t91 51t110 19.5t104.5 3q5 40 -20 63.5t-64 23.5q-37 0 -69.5 -15.5t-60.5 -42.5l-68 82q47 39 105.5 58.5t118.5 19.5q66 0 106.5 -16.5t61.5 -48.5t24.5 -78.5t-5.5 -107.5
l-34 -247h-138zM350 213q-17 0 -42.5 -1.5t-50 -8.5t-43 -21t-21.5 -39q-2 -14 3 -23.5t14 -16.5t21.5 -10t24.5 -3q22 0 43.5 6t39 17t29.5 28t15 40l4 32h-37zM538 591h-340l13 96h340z" />
    <glyph glyph-name="Abreve" unicode="&#x102;" horiz-adv-x="741" 
d="M404 708h129l209 -708h-176l-40 150h-275l-80 -150h-172zM435 502l-117 -220h173zM388 904q1 -15 10 -24t23 -14.5t30.5 -7.5t33.5 -2q39 0 67 7.5t45 40.5h79q-10 -38 -30 -65.5t-47 -45t-59.5 -25.5t-68.5 -8q-35 0 -66.5 7.5t-54 25t-34.5 45t-8 66.5h80z" />
    <glyph glyph-name="abreve" unicode="&#x103;" horiz-adv-x="537" 
d="M366 61h-2q-30 -39 -74 -56t-90 -17q-34 0 -64 9.5t-51.5 28.5t-31.5 47t-5 65q9 63 47.5 97.5t91 51t110 19.5t104.5 3q5 40 -20 63.5t-64 23.5q-37 0 -69.5 -15.5t-60.5 -42.5l-68 82q47 39 105.5 58.5t118.5 19.5q66 0 106.5 -16.5t61.5 -48.5t24.5 -78.5t-5.5 -107.5
l-34 -247h-138zM350 213q-17 0 -42.5 -1.5t-50 -8.5t-43 -21t-21.5 -39q-2 -14 3 -23.5t14 -16.5t21.5 -10t24.5 -3q22 0 43.5 6t39 17t29.5 28t15 40l4 32h-37zM280 708q1 -15 10.5 -24t23 -14.5t30 -7.5t33.5 -2q39 0 67.5 7.5t44.5 40.5h79q-9 -38 -29 -65.5t-47 -45
t-59.5 -25.5t-68.5 -8t-67 7.5t-54 25t-34.5 45t-8.5 66.5h80z" />
    <glyph glyph-name="Aogonek" unicode="&#x104;" horiz-adv-x="741" 
d="M661 -198q-28 -19 -55.5 -30.5t-59.5 -11.5q-21 0 -39.5 6t-31 18t-18.5 29t-3 40q3 19 14 39.5t27 40t34.5 37t36.5 30.5l-40 150h-275l-80 -150h-172l405 708h129l209 -708h-107q-14 -12 -28.5 -27t-27 -31t-21.5 -32.5t-11 -31.5q-2 -17 8 -31.5t28 -14.5q14 0 29 7
t28 16zM435 502l-117 -220h173z" />
    <glyph glyph-name="aogonek" unicode="&#x105;" horiz-adv-x="537" 
d="M366 61h-2q-30 -39 -74 -56t-90 -17q-35 0 -65 9.5t-51 28.5t-31 47t-5 65q6 42 26 71t49 48t64 29.5t72.5 15.5t74 6t67.5 1q5 40 -20 63.5t-64 23.5q-37 0 -69.5 -15.5t-60.5 -42.5l-68 82q48 39 106 58.5t118 19.5q66 0 106.5 -16.5t61.5 -48.5t24.5 -78.5
t-5.5 -107.5l-34 -247h-68q-14 -12 -28.5 -27t-27 -31t-21.5 -32.5t-11 -31.5q-2 -17 8 -31.5t28 -14.5q14 0 29 7t28 16l21 -53q-28 -19 -55.5 -30.5t-59.5 -11.5q-21 0 -39.5 6t-31 18t-18.5 29t-3 40q3 19 14 39.5t27 39.5t34.5 36.5t35.5 31.5zM350 213
q-17 0 -42.5 -1.5t-50 -8.5t-43 -21t-21.5 -39q-2 -14 3 -23.5t14 -16.5t21.5 -10t24.5 -3q22 0 43.5 6t39 17t29.5 28t15 40l4 32h-37z" />
    <glyph glyph-name="Cacute" unicode="&#x106;" horiz-adv-x="685" 
d="M608 524q-20 28 -51 43t-75 15t-84 -17t-71.5 -47.5t-53 -72.5t-28.5 -91q-7 -50 2.5 -91.5t32 -72t57 -47.5t76.5 -17q48 0 88 20t69 56l116 -97q-54 -63 -127 -93t-146 -30q-83 0 -149.5 26t-110.5 74.5t-63 117.5t-7 154t50.5 154t96 117.5t131.5 74.5t157 26
q30 0 61.5 -5.5t61.5 -17.5t56.5 -32t44.5 -49zM520 904h204l-194 -144h-132z" />
    <glyph glyph-name="cacute" unicode="&#x107;" horiz-adv-x="482" 
d="M428 329q-9 16 -27.5 26.5t-41.5 10.5q-57 0 -93 -34t-44 -89t18.5 -89t83.5 -34q25 0 45 11t35 26l84 -104q-41 -36 -90 -50.5t-92 -14.5q-56 0 -103 18t-78.5 51.5t-46 80.5t-6.5 105t35.5 105t68.5 80.5t93 51.5t108 18q43 0 88.5 -14.5t75.5 -50.5zM395 708h204
l-193 -144h-132z" />
    <glyph glyph-name="Ccircumflex" unicode="&#x108;" horiz-adv-x="685" 
d="M608 524q-20 28 -51 43t-75 15t-84 -17t-71.5 -47.5t-53 -72.5t-28.5 -91q-7 -50 2.5 -91.5t32 -72t57 -47.5t76.5 -17q48 0 88 20t69 56l116 -97q-54 -63 -127 -93t-146 -30q-83 0 -149.5 26t-110.5 74.5t-63 117.5t-7 154t50.5 154t96 117.5t131.5 74.5t157 26
q30 0 61.5 -5.5t61.5 -17.5t56.5 -32t44.5 -49zM567 760l-52 78l-73 -78h-135l140 144h163l95 -144h-138z" />
    <glyph glyph-name="ccircumflex" unicode="&#x109;" horiz-adv-x="482" 
d="M428 329q-9 16 -27.5 26.5t-41.5 10.5q-57 0 -93 -34t-44 -89t18.5 -89t83.5 -34q25 0 45 11t35 26l84 -104q-41 -36 -90 -50.5t-92 -14.5q-56 0 -103 18t-78.5 51.5t-46 80.5t-6.5 105t35.5 105t68.5 80.5t93 51.5t108 18q43 0 88.5 -14.5t75.5 -50.5zM431 564l-52 78
l-73 -78h-135l139 144h163l96 -144h-138z" />
    <glyph glyph-name="Cdotaccent" unicode="&#x10a;" horiz-adv-x="685" 
d="M608 524q-20 28 -51 43t-75 15t-84 -17t-71.5 -47.5t-53 -72.5t-28.5 -91q-7 -50 2.5 -91.5t32 -72t57 -47.5t76.5 -17q48 0 88 20t69 56l116 -97q-54 -63 -127 -93t-146 -30q-83 0 -149.5 26t-110.5 74.5t-63 117.5t-7 154t50.5 154t96 117.5t131.5 74.5t157 26
q30 0 61.5 -5.5t61.5 -17.5t56.5 -32t44.5 -49zM504 754q-18 0 -32 7t-23.5 19t-13.5 27.5t-1 32.5q2 16 10.5 31t21 26t28 18t32.5 7q35 0 58 -23t18 -59q-3 -18 -11.5 -33.5t-21.5 -27.5t-30 -18.5t-35 -6.5z" />
    <glyph glyph-name="cdotaccent" unicode="&#x10b;" horiz-adv-x="482" 
d="M428 329q-9 16 -27.5 26.5t-41.5 10.5q-57 0 -93 -34t-44 -89t18.5 -89t83.5 -34q25 0 45 11t35 26l84 -104q-41 -36 -90 -50.5t-92 -14.5q-56 0 -103 18t-78.5 51.5t-46 80.5t-6.5 105t35.5 105t68.5 80.5t93 51.5t108 18q43 0 88.5 -14.5t75.5 -50.5zM368 558
q-35 0 -55.5 25.5t-15.5 60.5q2 16 10.5 31t21.5 26t28.5 18t32.5 7q35 0 57.5 -23t17.5 -59t-32.5 -61t-64.5 -25z" />
    <glyph glyph-name="Ccaron" unicode="&#x10c;" horiz-adv-x="685" 
d="M608 524q-20 28 -51 43t-75 15t-84 -17t-71.5 -47.5t-53 -72.5t-28.5 -91q-7 -50 2.5 -91.5t32 -72t57 -47.5t76.5 -17q48 0 88 20t69 56l116 -97q-54 -63 -127 -93t-146 -30q-83 0 -149.5 26t-110.5 74.5t-63 117.5t-7 154t50.5 154t96 117.5t131.5 74.5t157 26
q30 0 61.5 -5.5t61.5 -17.5t56.5 -32t44.5 -49zM465 931l52 -78l73 78h135l-139 -144h-163l-96 144h138z" />
    <glyph glyph-name="ccaron" unicode="&#x10d;" horiz-adv-x="482" 
d="M428 329q-9 16 -27.5 26.5t-41.5 10.5q-57 0 -93 -34t-44 -89t18.5 -89t83.5 -34q25 0 45 11t35 26l84 -104q-41 -36 -90 -50.5t-92 -14.5q-56 0 -103 18t-78.5 51.5t-46 80.5t-6.5 105t35.5 105t68.5 80.5t93 51.5t108 18q43 0 88.5 -14.5t75.5 -50.5zM325 708l52 -78
l73 78h135l-139 -144h-163l-96 144h138z" />
    <glyph glyph-name="Dcaron" unicode="&#x10e;" horiz-adv-x="759" 
d="M171 708h234q85 0 158.5 -19t125 -61.5t75 -110.5t10.5 -165q-12 -86 -53.5 -151.5t-102.5 -110t-136.5 -67.5t-154.5 -23h-255zM248 144h81q54 0 102 11t85.5 36.5t62.5 67t34 101.5q7 52 -6.5 90.5t-43.5 63.5t-72.5 37.5t-91.5 12.5h-92zM407 931l52 -78l73 78h135
l-139 -144h-163l-96 144h138z" />
    <glyph glyph-name="dcaron" unicode="&#x10f;" horiz-adv-x="630" 
d="M563 0h-138l8 64h-2q-10 -13 -26.5 -26.5t-37.5 -24.5t-45.5 -18t-49.5 -7q-54 0 -95.5 18.5t-68.5 52t-37.5 79.5t-2.5 101q7 51 29 97.5t55.5 82.5t77.5 57.5t96 21.5q47 0 86 -14.5t59 -49.5h2l46 322h150zM459 243q8 55 -19 89t-84 34t-93 -34t-44 -89t18.5 -89
t83.5 -34t93.5 34t44.5 89zM756 708h134l-108 -199h-98z" />
    <glyph glyph-name="Dcroat" unicode="&#x110;" horiz-adv-x="759" 
d="M287 420h198l-15 -102h-198l-24 -174h81q54 0 102 11t85.5 36.5t62.5 67t34 101.5q7 52 -6.5 90.5t-43.5 63.5t-72.5 37.5t-91.5 12.5h-92zM116 318h-60l15 102h60l40 288h234q85 0 158.5 -19t125 -61.5t75 -110.5t10.5 -165q-12 -86 -53.5 -151.5t-102.5 -110
t-136.5 -67.5t-154.5 -23h-255z" />
    <glyph glyph-name="dcroat" unicode="&#x111;" horiz-adv-x="630" 
d="M697 561h-56l-78 -561h-138l8 64h-2q-11 -13 -27.5 -26.5t-37 -24.5t-45 -18t-49.5 -7q-54 0 -95.5 18.5t-68.5 52t-37.5 79.5t-2.5 101q7 51 29 97.5t55.5 82.5t77.5 57.5t96 21.5q48 0 86 -14.5t59 -49.5h2l18 127h-134l14 96h134l14 99h150l-14 -99h56zM459 243
q8 55 -19 89t-84 34t-93 -34t-44 -89t18.5 -89t83.5 -34t93.5 34t44.5 89z" />
    <glyph glyph-name="Emacron" unicode="&#x112;" horiz-adv-x="630" 
d="M177 708h481l-20 -144h-325l-19 -132h307l-20 -144h-307l-20 -144h343l-20 -144h-499zM604 787h-340l14 96h340z" />
    <glyph glyph-name="emacron" unicode="&#x113;" 
d="M524 84q-42 -46 -100.5 -71t-117.5 -25q-56 0 -103 18t-78.5 51.5t-46 80.5t-6.5 105t35.5 105t68.5 80.5t93 51.5t108 18q52 0 92 -18t65 -51.5t34.5 -80.5t1.5 -105l-7 -47h-348q3 -43 29.5 -68.5t70.5 -25.5q37 0 64.5 16.5t50.5 42.5zM427 298q6 38 -16 65t-63 27
q-25 0 -45 -8t-35 -20.5t-25 -29t-14 -34.5h198zM549 591h-340l13 96h340z" />
    <glyph glyph-name="Ebreve" unicode="&#x114;" horiz-adv-x="630" 
d="M177 708h481l-20 -144h-325l-19 -132h307l-20 -144h-307l-20 -144h343l-20 -144h-499zM347 904q1 -15 10 -24t23 -14.5t30.5 -7.5t33.5 -2q39 0 67 7.5t45 40.5h79q-10 -38 -30 -65.5t-47 -45t-59.5 -25.5t-68.5 -8q-35 0 -66.5 7.5t-54 25t-34.5 45t-8 66.5h80z" />
    <glyph glyph-name="ebreve" unicode="&#x115;" 
d="M524 84q-42 -46 -100.5 -71t-117.5 -25q-56 0 -103 18t-78.5 51.5t-46 80.5t-6.5 105t35.5 105t68.5 80.5t93 51.5t108 18q52 0 92 -18t65 -51.5t34.5 -80.5t1.5 -105l-7 -47h-348q3 -43 29.5 -68.5t70.5 -25.5q37 0 64.5 16.5t50.5 42.5zM427 298q6 38 -16 65t-63 27
q-25 0 -45 -8t-35 -20.5t-25 -29t-14 -34.5h198zM291 708q1 -15 10.5 -24t23 -14.5t30 -7.5t33.5 -2q39 0 67.5 7.5t44.5 40.5h79q-9 -38 -29 -65.5t-47 -45t-59.5 -25.5t-68.5 -8t-67 7.5t-54 25t-34.5 45t-8.5 66.5h80z" />
    <glyph glyph-name="Edotaccent" unicode="&#x116;" horiz-adv-x="630" 
d="M177 708h481l-20 -144h-325l-19 -132h307l-20 -144h-307l-20 -144h343l-20 -144h-499zM436 754q-18 0 -32 7t-23.5 19t-13.5 27.5t-1 32.5q2 16 10.5 31t21 26t28 18t32.5 7q35 0 58 -23t18 -59q-3 -18 -11.5 -33.5t-21.5 -27.5t-30 -18.5t-35 -6.5z" />
    <glyph glyph-name="edotaccent" unicode="&#x117;" 
d="M524 84q-42 -46 -100.5 -71t-117.5 -25q-56 0 -103 18t-78.5 51.5t-46 80.5t-6.5 105t35.5 105t68.5 80.5t93 51.5t108 18q52 0 92 -18t65 -51.5t34.5 -80.5t1.5 -105l-7 -47h-348q3 -43 29.5 -68.5t70.5 -25.5q37 0 64.5 16.5t50.5 42.5zM427 298q6 38 -16 65t-63 27
q-25 0 -45 -8t-35 -20.5t-25 -29t-14 -34.5h198zM379 558q-35 0 -55.5 25.5t-15.5 60.5q2 16 10.5 31t21.5 26t28.5 18t32.5 7q35 0 57.5 -23t17.5 -59t-32.5 -61t-64.5 -25z" />
    <glyph glyph-name="Eogonek" unicode="&#x118;" horiz-adv-x="630" 
d="M177 708h481l-20 -144h-325l-19 -132h307l-20 -144h-307l-20 -144h343l-20 -144h-64q-14 -12 -28.5 -27t-27 -31t-21.5 -32.5t-11 -31.5q-2 -17 8 -31.5t28 -14.5q14 0 29 7t28 16l21 -53q-28 -19 -55.5 -30.5t-59.5 -11.5q-21 0 -39.5 6t-31 18t-18.5 29t-3 40
q3 19 14 39.5t27 39.5t34.5 36.5t35.5 31.5h-365z" />
    <glyph glyph-name="eogonek" unicode="&#x119;" 
d="M393 -198q-28 -19 -55.5 -30.5t-59.5 -11.5q-21 0 -39.5 6t-31 18t-18.5 29t-3 40q3 18 12 36t22.5 35.5t29.5 34t32 30.5q-51 4 -93.5 23.5t-71 52.5t-41 78t-4.5 100q8 58 35.5 105t68.5 80.5t93 51.5t108 18q52 0 92 -18t65 -51.5t34.5 -80.5t1.5 -105l-7 -47h-348
q3 -43 29 -68.5t71 -25.5q37 0 64.5 16.5t50.5 42.5l94 -77q-34 -36 -76.5 -59t-88.5 -32q-14 -12 -27 -26t-24 -29t-19 -30.5t-10 -29.5q-2 -17 8 -31.5t28 -14.5q14 0 29 7t28 16zM427 298q7 38 -15.5 65t-63.5 27q-25 0 -45 -8t-35.5 -20.5t-25 -29t-13.5 -34.5h198z" />
    <glyph glyph-name="Ecaron" unicode="&#x11a;" horiz-adv-x="630" 
d="M177 708h481l-20 -144h-325l-19 -132h307l-20 -144h-307l-20 -144h343l-20 -144h-499zM389 931l52 -78l73 78h135l-139 -144h-163l-96 144h138z" />
    <glyph glyph-name="ecaron" unicode="&#x11b;" 
d="M524 84q-42 -46 -100.5 -71t-117.5 -25q-56 0 -103 18t-78.5 51.5t-46 80.5t-6.5 105t35.5 105t68.5 80.5t93 51.5t108 18q52 0 92 -18t65 -51.5t34.5 -80.5t1.5 -105l-7 -47h-348q3 -43 29.5 -68.5t70.5 -25.5q37 0 64.5 16.5t50.5 42.5zM427 298q6 38 -16 65t-63 27
q-25 0 -45 -8t-35 -20.5t-25 -29t-14 -34.5h198zM330 708l52 -78l73 78h135l-139 -144h-163l-96 144h138z" />
    <glyph glyph-name="Gcircumflex" unicode="&#x11c;" horiz-adv-x="778" 
d="M720 50q-75 -36 -152 -52t-155 -16q-83 0 -149.5 26t-110.5 74.5t-63 117.5t-7 154t50.5 154t96 117.5t131.5 74.5t157 26q85 0 153.5 -20.5t115.5 -70.5l-127 -120q-27 33 -65 50t-98 17q-50 0 -93 -17t-76 -47.5t-54.5 -72.5t-28.5 -91q-7 -50 3 -91.5t34.5 -72
t62.5 -47.5t88 -17q51 0 90 11.5t62 23.5l16 115h-127l21 144h277zM579 760l-52 78l-73 -78h-135l140 144h163l95 -144h-138z" />
    <glyph glyph-name="gcircumflex" unicode="&#x11d;" horiz-adv-x="630" 
d="M568 41q-19 -138 -98.5 -209.5t-221.5 -71.5q-65 0 -126 14.5t-108 56.5l100 124q31 -29 67 -46t82 -17q69 0 106 33.5t45 85.5l7 47h-2q-31 -35 -71.5 -49.5t-74.5 -14.5q-54 0 -95.5 18.5t-68.5 52t-37.5 79.5t-2.5 101q7 48 28.5 94t55 81t77.5 56.5t96 21.5
q32 0 58 -7t45.5 -18t32.5 -24.5t20 -26.5h2l9 64h138zM219 246q-3 -24 3 -45.5t19.5 -38t34 -26.5t46.5 -10q25 0 48.5 10t42 26.5t31 38t15.5 45.5t-3 45.5t-19.5 38t-34.5 26.5t-46 10q-26 0 -49 -10t-41.5 -26.5t-31 -38t-15.5 -45.5zM451 564l-52 78l-73 -78h-135
l139 144h163l96 -144h-138z" />
    <glyph glyph-name="Gbreve" unicode="&#x11e;" horiz-adv-x="778" 
d="M720 50q-75 -36 -152 -52t-155 -16q-83 0 -149.5 26t-110.5 74.5t-63 117.5t-7 154t50.5 154t96 117.5t131.5 74.5t157 26q85 0 153.5 -20.5t115.5 -70.5l-127 -120q-27 33 -65 50t-98 17q-50 0 -93 -17t-76 -47.5t-54.5 -72.5t-28.5 -91q-7 -50 3 -91.5t34.5 -72
t62.5 -47.5t88 -17q51 0 90 11.5t62 23.5l16 115h-127l21 144h277zM435 904q1 -15 10 -24t23 -14.5t30.5 -7.5t33.5 -2q39 0 67 7.5t45 40.5h79q-10 -38 -30 -65.5t-47 -45t-59.5 -25.5t-68.5 -8q-35 0 -66.5 7.5t-54 25t-34.5 45t-8 66.5h80z" />
    <glyph glyph-name="gbreve" unicode="&#x11f;" horiz-adv-x="630" 
d="M568 41q-19 -138 -98.5 -209.5t-221.5 -71.5q-65 0 -126 14.5t-108 56.5l100 124q31 -29 67 -46t82 -17q69 0 106 33.5t45 85.5l7 47h-2q-31 -35 -71.5 -49.5t-74.5 -14.5q-54 0 -95.5 18.5t-68.5 52t-37.5 79.5t-2.5 101q7 48 28.5 94t55 81t77.5 56.5t96 21.5
q32 0 58 -7t45.5 -18t32.5 -24.5t20 -26.5h2l9 64h138zM219 246q-3 -24 3 -45.5t19.5 -38t34 -26.5t46.5 -10q25 0 48.5 10t42 26.5t31 38t15.5 45.5t-3 45.5t-19.5 38t-34.5 26.5t-46 10q-26 0 -49 -10t-41.5 -26.5t-31 -38t-15.5 -45.5zM316 708q1 -15 10.5 -24t23 -14.5
t30 -7.5t33.5 -2q39 0 67.5 7.5t44.5 40.5h79q-9 -38 -29 -65.5t-47 -45t-59.5 -25.5t-68.5 -8t-67 7.5t-54 25t-34.5 45t-8.5 66.5h80z" />
    <glyph glyph-name="Gdotaccent" unicode="&#x120;" horiz-adv-x="778" 
d="M720 50q-75 -36 -152 -52t-155 -16q-83 0 -149.5 26t-110.5 74.5t-63 117.5t-7 154t50.5 154t96 117.5t131.5 74.5t157 26q85 0 153.5 -20.5t115.5 -70.5l-127 -120q-27 33 -65 50t-98 17q-50 0 -93 -17t-76 -47.5t-54.5 -72.5t-28.5 -91q-7 -50 3 -91.5t34.5 -72
t62.5 -47.5t88 -17q51 0 90 11.5t62 23.5l16 115h-127l21 144h277zM516 754q-18 0 -32 7t-23.5 19t-13.5 27.5t-1 32.5q2 16 10.5 31t21 26t28 18t32.5 7q35 0 58 -23t18 -59q-3 -18 -11.5 -33.5t-21.5 -27.5t-30 -18.5t-35 -6.5z" />
    <glyph glyph-name="gdotaccent" unicode="&#x121;" horiz-adv-x="630" 
d="M568 41q-19 -138 -98.5 -209.5t-221.5 -71.5q-65 0 -126 14.5t-108 56.5l100 124q31 -29 67 -46t82 -17q69 0 106 33.5t45 85.5l7 47h-2q-31 -35 -71.5 -49.5t-74.5 -14.5q-54 0 -95.5 18.5t-68.5 52t-37.5 79.5t-2.5 101q7 48 28.5 94t55 81t77.5 56.5t96 21.5
q32 0 58 -7t45.5 -18t32.5 -24.5t20 -26.5h2l9 64h138zM219 246q-3 -24 3 -45.5t19.5 -38t34 -26.5t46.5 -10q25 0 48.5 10t42 26.5t31 38t15.5 45.5t-3 45.5t-19.5 38t-34.5 26.5t-46 10q-26 0 -49 -10t-41.5 -26.5t-31 -38t-15.5 -45.5zM398 558q-35 0 -55.5 25.5
t-15.5 60.5q2 16 10.5 31t21.5 26t28.5 18t32.5 7q35 0 57.5 -23t17.5 -59t-32.5 -61t-64.5 -25z" />
    <glyph glyph-name="Gcommaaccent" unicode="&#x122;" horiz-adv-x="778" 
d="M720 50q-75 -36 -152 -52t-155 -16q-83 0 -149.5 26t-110.5 74.5t-63 117.5t-7 154t50.5 154t96 117.5t131.5 74.5t157 26q85 0 153.5 -20.5t115.5 -70.5l-127 -120q-27 33 -65 50t-98 17q-50 0 -93 -17t-76 -47.5t-54.5 -72.5t-28.5 -91q-7 -50 3 -91.5t34.5 -72
t62.5 -47.5t88 -17q51 0 90 11.5t62 23.5l16 115h-127l21 144h277zM356 -61h144l-118 -199h-117z" />
    <glyph glyph-name="gcommaaccent" unicode="&#x123;" horiz-adv-x="630" 
d="M568 41q-19 -138 -98.5 -209.5t-221.5 -71.5q-65 0 -126 14.5t-108 56.5l100 124q31 -29 67 -46t82 -17q69 0 106 33.5t45 85.5l7 47h-2q-31 -35 -71.5 -49.5t-74.5 -14.5q-54 0 -95.5 18.5t-68.5 52t-37.5 79.5t-2.5 101q7 48 28.5 94t55 81t77.5 56.5t96 21.5
q32 0 58 -7t45.5 -18t32.5 -24.5t20 -26.5h2l9 64h138zM219 246q-3 -24 3 -45.5t19.5 -38t34 -26.5t46.5 -10q25 0 48.5 10t42 26.5t31 38t15.5 45.5t-3 45.5t-19.5 38t-34.5 26.5t-46 10q-26 0 -49 -10t-41.5 -26.5t-31 -38t-15.5 -45.5zM454 584h-144l118 199h118z" />
    <glyph glyph-name="Hcircumflex" unicode="&#x124;" horiz-adv-x="759" 
d="M171 708h156l-37 -264h303l37 264h156l-99 -708h-156l43 306h-303l-43 -306h-156zM546 760l-52 78l-73 -78h-135l140 144h163l95 -144h-138z" />
    <glyph glyph-name="hcircumflex" unicode="&#x125;" 
d="M309 756l-47 -336h2q7 14 20.5 28t32 25t42.5 18t51 7q57 0 90 -17.5t48 -48.5t16 -73t-6 -91l-37 -268h-150l33 238q3 21 5 43.5t-3 41.5t-19 31t-43 12t-48.5 -10.5t-31.5 -28t-18 -39.5t-9 -46l-34 -242h-150l106 756h150zM439 800l-52 78l-73 -78h-135l140 144h163
l95 -144h-138z" />
    <glyph glyph-name="Hbar" unicode="&#x126;" horiz-adv-x="759" 
d="M171 708h156l-12 -88h303l12 88h156l-99 -708h-156l43 306h-303l-43 -306h-156zM593 444l11 80h-303l-11 -80h303z" />
    <glyph glyph-name="hbar" unicode="&#x127;" 
d="M415 561h-134l-19 -141h2q7 14 20.5 28t32.5 25t42.5 18t50.5 7q57 0 89.5 -17.5t48 -48.5t16.5 -73t-6 -91l-37 -268h-150l33 238q3 21 4.5 43.5t-3 41.5t-19 31t-42.5 12q-29 0 -48.5 -10.5t-31.5 -28t-18 -39.5t-9 -46l-34 -242h-150l78 561h-56l14 96h56l14 99h150
l-14 -99h134z" />
    <glyph glyph-name="Itilde" unicode="&#x128;" horiz-adv-x="296" 
d="M169 708h156l-99 -708h-156zM60 766q8 25 21.5 50t32 44.5t42 31.5t51.5 12q25 0 44 -6t40 -15q14 -5 26 -10t27 -5q17 0 29 10.5t21 25.5h78q-9 -29 -22 -54t-31 -43.5t-42 -29.5t-55 -11q-22 0 -40 6.5t-35 14.5q-16 8 -30.5 14.5t-29.5 6.5q-17 0 -28.5 -14t-19.5 -28
h-79z" />
    <glyph glyph-name="itilde" unicode="&#x129;" horiz-adv-x="260" 
d="M123 486h150l-68 -486h-150zM16 570q7 25 20.5 50t32 44.5t42 31.5t51.5 12q25 0 44.5 -6t39.5 -15l26 -10t28 -5q17 0 28.5 10.5t20.5 25.5h78q-9 -29 -21.5 -54t-30.5 -43.5t-42 -29.5t-55 -11q-22 0 -40.5 6.5t-34.5 14.5q-17 8 -31 14.5t-29 6.5q-17 0 -29.5 -14
t-18.5 -28h-79z" />
    <glyph glyph-name="Imacron" unicode="&#x12a;" horiz-adv-x="296" 
d="M169 708h156l-99 -708h-156zM427 787h-340l14 96h340z" />
    <glyph glyph-name="imacron" unicode="&#x12b;" horiz-adv-x="260" 
d="M123 486h150l-68 -486h-150zM385 591h-340l13 96h340z" />
    <glyph glyph-name="Iogonek" unicode="&#x12e;" horiz-adv-x="296" 
d="M169 708h156l-99 -708h-86q-14 -12 -28.5 -27t-27 -31t-21.5 -32.5t-11 -31.5q-2 -17 8 -31.5t28 -14.5q14 0 29 7t28 16l21 -53q-28 -19 -55.5 -30.5t-59.5 -11.5q-21 0 -39 6t-30.5 18t-18.5 29t-3 40q3 19 14 39.5t26.5 39.5t34 36.5t35.5 31.5z" />
    <glyph glyph-name="iogonek" unicode="&#x12f;" horiz-adv-x="260" 
d="M123 486h150l-68 -486h-51q-14 -12 -28.5 -27t-27 -31t-21.5 -32.5t-11 -31.5q-2 -17 8 -31.5t28 -14.5q14 0 29 7t28 16l21 -53q-28 -19 -55.5 -30.5t-59.5 -11.5q-21 0 -39 6t-31 18t-18.5 29t-2.5 40q3 19 14 39.5t26.5 39.5t34 36.5t35.5 31.5h-29zM132 639
q3 18 12 34t22.5 27.5t30.5 18.5t35 7q36 0 57.5 -25.5t16.5 -61.5q-2 -18 -11 -34t-22.5 -27.5t-30.5 -18.5t-35 -7t-33 7t-25 18.5t-14.5 27.5t-2.5 34z" />
    <glyph glyph-name="Idotaccent" unicode="&#x130;" horiz-adv-x="296" 
d="M169 708h156l-99 -708h-156zM258 754q-18 0 -32 7t-23.5 19t-13.5 27.5t-1 32.5q2 16 10.5 31t21 26t28 18t32.5 7q35 0 58 -23t18 -59q-3 -18 -11.5 -33.5t-21.5 -27.5t-30 -18.5t-35 -6.5z" />
    <glyph glyph-name="dotlessi" unicode="&#x131;" horiz-adv-x="260" 
d="M123 486h150l-68 -486h-150z" />
    <glyph glyph-name="Jcircumflex" unicode="&#x134;" horiz-adv-x="500" 
d="M471 237q-7 -49 -22 -95t-44 -81.5t-76.5 -57t-119.5 -21.5q-84 0 -136.5 40t-57.5 125l148 35q-1 -26 17 -44t44 -18q27 0 44 13.5t27 33.5t14.5 43.5t7.5 43.5l64 454h156zM528 760l-52 78l-73 -78h-135l140 144h163l95 -144h-138z" />
    <glyph glyph-name="jcircumflex" unicode="&#x135;" horiz-adv-x="260" 
d="M199 -36q-6 -47 -20.5 -84.5t-39 -64t-60.5 -41t-87 -14.5q-17 0 -34.5 1.5t-34.5 6.5l27 133q16 -9 37 -9q19 0 31 10t19 25t10.5 32t5.5 31l70 496h150zM270 564l-52 78l-73 -78h-135l139 144h163l96 -144h-138z" />
    <glyph glyph-name="Kcommaaccent" unicode="&#x136;" horiz-adv-x="722" 
d="M177 708h156l-41 -294l316 294h204l-361 -329l289 -379h-218l-241 336l-47 -336h-156zM287 -61h144l-118 -199h-117z" />
    <glyph glyph-name="kcommaaccent" unicode="&#x137;" horiz-adv-x="556" 
d="M159 756h150l-65 -462l193 192h184l-224 -219l161 -267h-189l-130 246h-2l-34 -246h-150zM197 -61h144l-118 -199h-117z" />
    <glyph glyph-name="Lacute" unicode="&#x139;" horiz-adv-x="537" 
d="M177 708h156l-79 -564h289l-20 -144h-445zM284 904h204l-194 -144h-132z" />
    <glyph glyph-name="lacute" unicode="&#x13a;" horiz-adv-x="260" 
d="M161 756h150l-106 -756h-150zM273 944h204l-194 -144h-132z" />
    <glyph glyph-name="Lcommaaccent" unicode="&#x13b;" horiz-adv-x="537" 
d="M177 708h156l-79 -564h289l-20 -144h-445zM223 -61h144l-118 -199h-117z" />
    <glyph glyph-name="lcommaaccent" unicode="&#x13c;" horiz-adv-x="260" 
d="M161 756h150l-106 -756h-150zM70 -61h144l-118 -199h-117z" />
    <glyph glyph-name="Lcaron" unicode="&#x13d;" horiz-adv-x="537" 
d="M177 708h156l-79 -564h289l-20 -144h-445zM455 708h134l-108 -199h-98z" />
    <glyph glyph-name="lcaron" unicode="&#x13e;" horiz-adv-x="260" 
d="M161 756h150l-106 -756h-150zM400 708h134l-108 -199h-98z" />
    <glyph glyph-name="Ldot" unicode="&#x13f;" horiz-adv-x="537" 
d="M177 708h156l-79 -564h289l-20 -144h-445zM457 319q-35 0 -55.5 25.5t-15.5 60.5q2 16 10.5 31t21.5 26t28.5 18t32.5 7q35 0 57.5 -23t17.5 -59t-32.5 -61t-64.5 -25z" />
    <glyph glyph-name="ldot" unicode="&#x140;" horiz-adv-x="400" 
d="M161 756h150l-106 -756h-150zM373 325q-35 0 -55.5 25.5t-15.5 60.5q2 16 10.5 31t21.5 26t28.5 18t32.5 7q35 0 57.5 -23t17.5 -59t-32.5 -61t-64.5 -25z" />
    <glyph glyph-name="Lslash" unicode="&#x141;" horiz-adv-x="537" 
d="M100 160l-67 -52l18 132l68 52l58 416h156l-39 -281l236 185l-19 -130l-236 -184l-21 -154h289l-20 -144h-445z" />
    <glyph glyph-name="lslash" unicode="&#x142;" horiz-adv-x="260" 
d="M89 248l-68 -61l18 129l68 61l54 379h150l-32 -229l68 61l-18 -129l-69 -61l-55 -398h-150z" />
    <glyph glyph-name="Nacute" unicode="&#x143;" horiz-adv-x="815" 
d="M171 708h212l232 -492h2l69 492h156l-99 -708h-204l-239 504h-2l-70 -504h-156zM551 904h204l-194 -144h-132z" />
    <glyph glyph-name="nacute" unicode="&#x144;" 
d="M121 486h144l-9 -66h2q9 14 24 28t34 25t43 18t51 7q57 0 90 -17.5t48 -48.5t16 -73t-6 -91l-37 -268h-150l33 238q3 21 5 43.5t-3 41.5t-19 31t-43 12t-48.5 -10.5t-31.5 -28t-18 -39.5t-9 -46l-34 -242h-150zM361 708h204l-193 -144h-132z" />
    <glyph glyph-name="Ncommaaccent" unicode="&#x145;" horiz-adv-x="815" 
d="M171 708h212l232 -492h2l69 492h156l-99 -708h-204l-239 504h-2l-70 -504h-156zM328 -61h144l-118 -199h-117z" />
    <glyph glyph-name="ncommaaccent" unicode="&#x146;" 
d="M121 486h144l-9 -66h2q9 14 24 28t34 25t43 18t51 7q57 0 90 -17.5t48 -48.5t16 -73t-6 -91l-37 -268h-150l33 238q3 21 5 43.5t-3 41.5t-19 31t-43 12t-48.5 -10.5t-31.5 -28t-18 -39.5t-9 -46l-34 -242h-150zM219 -61h144l-118 -199h-117z" />
    <glyph glyph-name="Ncaron" unicode="&#x147;" horiz-adv-x="815" 
d="M171 708h212l232 -492h2l69 492h156l-99 -708h-204l-239 504h-2l-70 -504h-156zM509 931l52 -78l73 78h135l-139 -144h-163l-96 144h138z" />
    <glyph glyph-name="ncaron" unicode="&#x148;" 
d="M121 486h144l-9 -66h2q9 14 24 28t34 25t43 18t51 7q57 0 90 -17.5t48 -48.5t16 -73t-6 -91l-37 -268h-150l33 238q3 21 5 43.5t-3 41.5t-19 31t-43 12t-48.5 -10.5t-31.5 -28t-18 -39.5t-9 -46l-34 -242h-150zM321 708l52 -78l73 78h135l-139 -144h-163l-96 144h138z
" />
    <glyph glyph-name="Omacron" unicode="&#x14c;" horiz-adv-x="832" 
d="M83 354q12 85 50.5 154t96 117.5t131.5 74.5t157 26t149 -26t110 -74.5t63 -117.5t7 -154t-50 -154t-96 -117.5t-131.5 -74.5t-156.5 -26t-149.5 26t-110.5 74.5t-63 117.5t-7 154zM245 354q-7 -50 3 -91.5t34.5 -72t62.5 -47.5t88 -17t93 17t76 47.5t54.5 72t28.5 91.5
q7 49 -2.5 91t-34.5 72.5t-63 47.5t-88 17t-93 -17t-76 -47.5t-54.5 -72.5t-28.5 -91zM695 787h-340l14 96h340z" />
    <glyph glyph-name="omacron" unicode="&#x14d;" horiz-adv-x="610" 
d="M69 243q8 58 35.5 105t68.5 80.5t93 51.5t108 18t103 -18t79 -51.5t46.5 -80.5t6.5 -105t-36 -105t-69 -80.5t-93 -51.5t-108 -18t-103 18t-78.5 51.5t-46 80.5t-6.5 105zM219 243q-8 -55 18.5 -89t83.5 -34t93.5 34t44.5 89t-19 89t-84 34t-93 -34t-44 -89zM558 591
h-340l13 96h340z" />
    <glyph glyph-name="Obreve" unicode="&#x14e;" horiz-adv-x="832" 
d="M83 354q12 85 50.5 154t96 117.5t131.5 74.5t157 26t149 -26t110 -74.5t63 -117.5t7 -154t-50 -154t-96 -117.5t-131.5 -74.5t-156.5 -26t-149.5 26t-110.5 74.5t-63 117.5t-7 154zM245 354q-7 -50 3 -91.5t34.5 -72t62.5 -47.5t88 -17t93 17t76 47.5t54.5 72t28.5 91.5
q7 49 -2.5 91t-34.5 72.5t-63 47.5t-88 17t-93 -17t-76 -47.5t-54.5 -72.5t-28.5 -91zM438 904q1 -15 10 -24t23 -14.5t30.5 -7.5t33.5 -2q39 0 67 7.5t45 40.5h79q-10 -38 -30 -65.5t-47 -45t-59.5 -25.5t-68.5 -8q-35 0 -66.5 7.5t-54 25t-34.5 45t-8 66.5h80z" />
    <glyph glyph-name="obreve" unicode="&#x14f;" horiz-adv-x="610" 
d="M69 243q8 58 35.5 105t68.5 80.5t93 51.5t108 18t103 -18t79 -51.5t46.5 -80.5t6.5 -105t-36 -105t-69 -80.5t-93 -51.5t-108 -18t-103 18t-78.5 51.5t-46 80.5t-6.5 105zM219 243q-8 -55 18.5 -89t83.5 -34t93.5 34t44.5 89t-19 89t-84 34t-93 -34t-44 -89zM300 708
q1 -15 10.5 -24t23 -14.5t30 -7.5t33.5 -2q39 0 67.5 7.5t44.5 40.5h79q-9 -38 -29 -65.5t-47 -45t-59.5 -25.5t-68.5 -8t-67 7.5t-54 25t-34.5 45t-8.5 66.5h80z" />
    <glyph glyph-name="Ohungarumlaut" unicode="&#x150;" horiz-adv-x="832" 
d="M83 354q12 85 50.5 154t96 117.5t131.5 74.5t157 26t149 -26t110 -74.5t63 -117.5t7 -154t-50 -154t-96 -117.5t-131.5 -74.5t-156.5 -26t-149.5 26t-110.5 74.5t-63 117.5t-7 154zM245 354q-7 -50 3 -91.5t34.5 -72t62.5 -47.5t88 -17t93 17t76 47.5t54.5 72t28.5 91.5
q7 49 -2.5 91t-34.5 72.5t-63 47.5t-88 17t-93 -17t-76 -47.5t-54.5 -72.5t-28.5 -91zM443 904h204l-194 -144h-132zM707 904h204l-194 -144h-132z" />
    <glyph glyph-name="ohungarumlaut" unicode="&#x151;" horiz-adv-x="610" 
d="M69 243q8 58 35.5 105t68.5 80.5t93 51.5t108 18t103 -18t79 -51.5t46.5 -80.5t6.5 -105t-36 -105t-69 -80.5t-93 -51.5t-108 -18t-103 18t-78.5 51.5t-46 80.5t-6.5 105zM219 243q-8 -55 18.5 -89t83.5 -34t93.5 34t44.5 89t-19 89t-84 34t-93 -34t-44 -89zM290 708h204
l-193 -144h-131zM554 708h204l-193 -144h-132z" />
    <glyph glyph-name="Racute" unicode="&#x154;" horiz-adv-x="648" 
d="M171 708h274q54 0 101 -10.5t80 -35t49 -66t7 -103.5q-11 -75 -57 -127.5t-123 -66.5l138 -299h-187l-109 283h-77l-39 -283h-156zM286 415h92q21 0 44.5 1.5t43.5 9t35 23.5t19 45q4 27 -5 43t-25 24.5t-37.5 11.5t-42.5 3h-102zM418 904h204l-194 -144h-132z" />
    <glyph glyph-name="racute" unicode="&#x155;" horiz-adv-x="407" 
d="M121 486h150l-11 -78h2q30 45 66 67.5t86 22.5q13 0 26 -1t24 -4l-19 -137q-16 5 -31 7.5t-32 2.5q-43 0 -70 -12t-43 -33.5t-24.5 -51.5t-13.5 -66l-28 -203h-150zM315 708h204l-193 -144h-132z" />
    <glyph glyph-name="Rcommaaccent" unicode="&#x156;" horiz-adv-x="648" 
d="M171 708h274q54 0 101 -10.5t80 -35t49 -66t7 -103.5q-11 -75 -57 -127.5t-123 -66.5l138 -299h-187l-109 283h-77l-39 -283h-156zM286 415h92q21 0 44.5 1.5t43.5 9t35 23.5t19 45q4 27 -5 43t-25 24.5t-37.5 11.5t-42.5 3h-102zM244 -61h144l-118 -199h-117z" />
    <glyph glyph-name="rcommaaccent" unicode="&#x157;" horiz-adv-x="407" 
d="M121 486h150l-11 -78h2q30 45 66 67.5t86 22.5q13 0 26 -1t24 -4l-19 -137q-16 5 -31 7.5t-32 2.5q-43 0 -70 -12t-43 -33.5t-24.5 -51.5t-13.5 -66l-28 -203h-150zM113 -61h144l-118 -199h-117z" />
    <glyph glyph-name="Rcaron" unicode="&#x158;" horiz-adv-x="648" 
d="M171 708h274q54 0 101 -10.5t80 -35t49 -66t7 -103.5q-11 -75 -57 -127.5t-123 -66.5l138 -299h-187l-109 283h-77l-39 -283h-156zM286 415h92q21 0 44.5 1.5t43.5 9t35 23.5t19 45q4 27 -5 43t-25 24.5t-37.5 11.5t-42.5 3h-102zM382 931l52 -78l73 78h135l-139 -144
h-163l-96 144h138z" />
    <glyph glyph-name="rcaron" unicode="&#x159;" horiz-adv-x="407" 
d="M121 486h150l-11 -78h2q30 45 66 67.5t86 22.5q13 0 26 -1t24 -4l-19 -137q-16 5 -31 7.5t-32 2.5q-43 0 -70 -12t-43 -33.5t-24.5 -51.5t-13.5 -66l-28 -203h-150zM246 708l52 -78l73 78h135l-139 -144h-163l-96 144h138z" />
    <glyph glyph-name="Sacute" unicode="&#x15a;" 
d="M497 535q-16 24 -47 35.5t-60 11.5q-17 0 -36 -4t-35.5 -12.5t-28.5 -22.5t-15 -34q-3 -24 8.5 -39.5t33 -26t50 -18.5t57.5 -18t56.5 -24t47.5 -35.5t29.5 -54t2.5 -78.5q-8 -59 -36.5 -103t-70 -73t-93 -43t-106.5 -14q-69 0 -125 21t-101 68l129 122
q20 -32 53.5 -49.5t72.5 -17.5q19 0 39 4.5t37 13.5t28.5 23t14.5 33q5 32 -17.5 50.5t-57.5 31.5t-76 26t-75 35t-53.5 58t-11.5 95q8 57 36.5 100t70.5 72t93 43.5t103 14.5q60 0 113.5 -17t92.5 -57zM423 904h204l-194 -144h-132z" />
    <glyph glyph-name="sacute" unicode="&#x15b;" horiz-adv-x="463" 
d="M376 343q-27 41 -82 41q-19 0 -38 -9t-22 -31q-3 -18 15 -26.5t45 -15t58.5 -14t57.5 -23.5t40.5 -43.5t8.5 -73.5q-6 -47 -31 -77.5t-59.5 -49t-75.5 -26t-80 -7.5q-51 0 -101 14.5t-81 51.5l105 101q18 -26 41.5 -39.5t57.5 -13.5q26 0 48 7.5t25 27.5q3 19 -14.5 28.5
t-45 16t-59 14t-58 22.5t-41.5 42.5t-8 73.5q6 43 28 74t53.5 51t69.5 29.5t76 9.5q48 0 95 -14t76 -50zM341 708h204l-193 -144h-132z" />
    <glyph glyph-name="Scircumflex" unicode="&#x15c;" 
d="M497 535q-16 24 -47 35.5t-60 11.5q-17 0 -36 -4t-35.5 -12.5t-28.5 -22.5t-15 -34q-3 -24 8.5 -39.5t33 -26t50 -18.5t57.5 -18t56.5 -24t47.5 -35.5t29.5 -54t2.5 -78.5q-8 -59 -36.5 -103t-70 -73t-93 -43t-106.5 -14q-69 0 -125 21t-101 68l129 122
q20 -32 53.5 -49.5t72.5 -17.5q19 0 39 4.5t37 13.5t28.5 23t14.5 33q5 32 -17.5 50.5t-57.5 31.5t-76 26t-75 35t-53.5 58t-11.5 95q8 57 36.5 100t70.5 72t93 43.5t103 14.5q60 0 113.5 -17t92.5 -57zM464 760l-52 78l-73 -78h-135l140 144h163l95 -144h-138z" />
    <glyph glyph-name="scircumflex" unicode="&#x15d;" horiz-adv-x="463" 
d="M376 343q-27 41 -82 41q-19 0 -38 -9t-22 -31q-3 -18 15 -26.5t45 -15t58.5 -14t57.5 -23.5t40.5 -43.5t8.5 -73.5q-6 -47 -31 -77.5t-59.5 -49t-75.5 -26t-80 -7.5q-51 0 -101 14.5t-81 51.5l105 101q18 -26 41.5 -39.5t57.5 -13.5q26 0 48 7.5t25 27.5q3 19 -14.5 28.5
t-45 16t-59 14t-58 22.5t-41.5 42.5t-8 73.5q6 43 28 74t53.5 51t69.5 29.5t76 9.5q48 0 95 -14t76 -50zM379 564l-52 78l-73 -78h-135l139 144h163l96 -144h-138z" />
    <glyph glyph-name="Scedilla" unicode="&#x15e;" 
d="M497 535q-16 24 -47 35.5t-60 11.5q-17 0 -36 -4t-35.5 -12.5t-28.5 -22.5t-15 -34q-5 -32 17 -49t56.5 -29t75.5 -24t74 -34t52 -59t10 -99q-8 -53 -31 -93t-57 -68.5t-76.5 -45t-89.5 -22.5l-38 -46q22 0 44 -2.5t39 -11t26 -25t5 -44.5q-4 -27 -21 -46t-39.5 -30
t-47.5 -16t-44 -5q-30 0 -63 8.5t-58 21.5l32 47q11 -5 29.5 -11t44.5 -6q23 0 45.5 6t25.5 26q2 18 -14.5 26t-31.5 8t-37 -8l-28 29l61 76q-63 2 -114.5 22.5t-93.5 65.5l129 122q20 -32 53.5 -49.5t72.5 -17.5q19 0 39 4.5t37 13.5t28.5 23t14.5 33q5 32 -17.5 50.5
t-57.5 31.5t-76 26t-75 35t-53.5 58t-11.5 95q8 57 37 100t70.5 72t92 43.5t103.5 14.5q60 0 113.5 -17t92.5 -57z" />
    <glyph glyph-name="scedilla" unicode="&#x15f;" horiz-adv-x="463" 
d="M376 343q-27 41 -82 41q-19 0 -38 -9t-22 -31q-3 -18 15 -26.5t45 -15t58.5 -14t57.5 -23.5t40.5 -43.5t8.5 -73.5q-5 -38 -23 -65.5t-43.5 -46t-57 -29.5t-64.5 -15l-42 -52q22 0 44 -2.5t39 -11t26 -25t5 -44.5q-4 -27 -21 -46t-39.5 -30t-47.5 -16t-44 -5
q-30 0 -63 8.5t-58 21.5l32 47q11 -5 29.5 -11t44.5 -6q23 0 45.5 6t25.5 26q2 18 -14.5 26t-31.5 8t-37 -8l-28 29l66 81q-49 2 -95.5 16.5t-75.5 49.5l105 101q17 -26 41 -39.5t58 -13.5q26 0 48 7.5t25 27.5q3 19 -14.5 28.5t-45 16t-59 14t-58 22.5t-41.5 42.5t-8 73.5
q6 43 28 74t53.5 51t69.5 29.5t76 9.5q48 0 95 -14t76 -50z" />
    <glyph glyph-name="Tcommaaccent" unicode="&#x162;" 
d="M289 570h-202l19 138h560l-19 -138h-202l-80 -570h-156zM231 -61h144l-118 -199h-117z" />
    <glyph glyph-name="tcommaaccent" unicode="&#x163;" horiz-adv-x="407" 
d="M435 366h-132l-23 -162q-3 -20 -3 -36.5t5.5 -28.5t19 -18.5t37.5 -6.5q12 0 31.5 2.5t30.5 11.5l-17 -125q-26 -9 -53.5 -12t-53.5 -3q-38 0 -69 8t-52.5 25.5t-31 45.5t-4.5 68l33 231h-96l17 120h96l20 144h150l-20 -144h132zM158 -61h144l-118 -199h-117z" />
    <glyph glyph-name="Tcaron" unicode="&#x164;" 
d="M289 570h-202l19 138h560l-19 -138h-202l-80 -570h-156zM356 931l52 -78l73 78h135l-139 -144h-163l-96 144h138z" />
    <glyph glyph-name="tcaron" unicode="&#x165;" horiz-adv-x="407" 
d="M435 366h-132l-23 -162q-3 -20 -3 -36.5t5.5 -28.5t19 -18.5t37.5 -6.5q12 0 31.5 2.5t30.5 11.5l-17 -125q-26 -9 -53.5 -12t-53.5 -3q-38 0 -69 8t-52.5 25.5t-31 45.5t-4.5 68l33 231h-96l17 120h96l20 144h150l-20 -144h132zM449 758h134l-108 -199h-98z" />
    <glyph glyph-name="Tbar" unicode="&#x166;" 
d="M541 366h-125l-51 -366h-156l51 366h-119l13 96h119l16 108h-202l19 138h560l-19 -138h-202l-16 -108h125z" />
    <glyph glyph-name="tbar" unicode="&#x167;" horiz-adv-x="407" 
d="M397 217h-115l-2 -13q-3 -20 -3 -36.5t5.5 -28.5t19 -18.5t37.5 -6.5q12 0 31.5 2.5t30.5 11.5l-17 -125q-26 -9 -53.5 -12t-53.5 -3q-38 0 -69 8t-52.5 25.5t-31.5 45.5t-4 68l12 82h-75l13 96h75l8 53h-96l17 120h96l20 144h150l-20 -144h132l-17 -120h-132l-8 -53h115
z" />
    <glyph glyph-name="Utilde" unicode="&#x168;" horiz-adv-x="741" 
d="M707 273q-9 -63 -35.5 -116t-69.5 -92t-102 -61t-132 -22q-74 0 -127 22t-85 61t-43.5 92t-2.5 116l61 435h156l-60 -429q-5 -33 1.5 -61t23 -48.5t41 -32t55.5 -11.5t58.5 11.5t49.5 32t36.5 48.5t19.5 61l60 429h156zM288 766q8 25 21.5 50t32 44.5t42 31.5t51.5 12
q25 0 44 -6t40 -15q14 -5 26 -10t27 -5q17 0 29 10.5t21 25.5h78q-9 -29 -22 -54t-31 -43.5t-42 -29.5t-55 -11q-22 0 -40 6.5t-35 14.5q-16 8 -30.5 14.5t-29.5 6.5q-17 0 -28.5 -14t-19.5 -28h-79z" />
    <glyph glyph-name="utilde" unicode="&#x169;" 
d="M521 0h-144l9 66h-2q-10 -14 -24.5 -28t-34 -25t-43.5 -18t-51 -7q-57 0 -90 17.5t-48 48.5t-16 73t6 91l38 268h150l-34 -238q-3 -21 -5 -43.5t3 -41.5t19 -31t43 -12t48.5 10.5t31.5 28t18.5 39.5t9.5 46l34 242h150zM174 570q7 25 20.5 50t32 44.5t42 31.5t51.5 12
q25 0 44.5 -6t39.5 -15l26 -10t28 -5q17 0 28.5 10.5t20.5 25.5h78q-9 -29 -21.5 -54t-30.5 -43.5t-42 -29.5t-55 -11q-22 0 -40.5 6.5t-34.5 14.5q-17 8 -31 14.5t-29 6.5q-17 0 -29.5 -14t-18.5 -28h-79z" />
    <glyph glyph-name="Umacron" unicode="&#x16a;" horiz-adv-x="741" 
d="M707 273q-9 -63 -35.5 -116t-69.5 -92t-102 -61t-132 -22q-74 0 -127 22t-85 61t-43.5 92t-2.5 116l61 435h156l-60 -429q-5 -33 1.5 -61t23 -48.5t41 -32t55.5 -11.5t58.5 11.5t49.5 32t36.5 48.5t19.5 61l60 429h156zM657 787h-340l14 96h340z" />
    <glyph glyph-name="umacron" unicode="&#x16b;" 
d="M521 0h-144l9 66h-2q-10 -14 -24.5 -28t-34 -25t-43.5 -18t-51 -7q-57 0 -90 17.5t-48 48.5t-16 73t6 91l38 268h150l-34 -238q-3 -21 -5 -43.5t3 -41.5t19 -31t43 -12t48.5 10.5t31.5 28t18.5 39.5t9.5 46l34 242h150zM539 591h-340l13 96h340z" />
    <glyph glyph-name="Ubreve" unicode="&#x16c;" horiz-adv-x="741" 
d="M707 273q-9 -63 -35.5 -116t-69.5 -92t-102 -61t-132 -22q-74 0 -127 22t-85 61t-43.5 92t-2.5 116l61 435h156l-60 -429q-5 -33 1.5 -61t23 -48.5t41 -32t55.5 -11.5t58.5 11.5t49.5 32t36.5 48.5t19.5 61l60 429h156zM400 904q1 -15 10 -24t23 -14.5t30.5 -7.5t33.5 -2
q39 0 67 7.5t45 40.5h79q-10 -38 -30 -65.5t-47 -45t-59.5 -25.5t-68.5 -8q-35 0 -66.5 7.5t-54 25t-34.5 45t-8 66.5h80z" />
    <glyph glyph-name="ubreve" unicode="&#x16d;" 
d="M521 0h-144l9 66h-2q-10 -14 -24.5 -28t-34 -25t-43.5 -18t-51 -7q-57 0 -90 17.5t-48 48.5t-16 73t6 91l38 268h150l-34 -238q-3 -21 -5 -43.5t3 -41.5t19 -31t43 -12t48.5 10.5t31.5 28t18.5 39.5t9.5 46l34 242h150zM284 708q1 -15 10.5 -24t23 -14.5t30 -7.5t33.5 -2
q39 0 67.5 7.5t44.5 40.5h79q-9 -38 -29 -65.5t-47 -45t-59.5 -25.5t-68.5 -8t-67 7.5t-54 25t-34.5 45t-8.5 66.5h80z" />
    <glyph glyph-name="Uring" unicode="&#x16e;" horiz-adv-x="741" 
d="M707 273q-9 -63 -35.5 -116t-69.5 -92t-102 -61t-132 -22q-74 0 -127 22t-85 61t-43.5 92t-2.5 116l61 435h156l-60 -429q-5 -33 1.5 -61t23 -48.5t41 -32t55.5 -11.5t58.5 11.5t49.5 32t36.5 48.5t19.5 61l60 429h156zM479 731q-23 0 -41.5 9t-31.5 24t-19 35t-3 43
q3 22 14.5 42.5t29 35.5t38.5 24t44 9q22 0 41 -9t32.5 -24t19.5 -35.5t3 -42.5q-3 -23 -15 -43t-29.5 -35t-39 -24t-43.5 -9zM444 842q-3 -21 10 -36t34 -15t38 15t20 36t-10 36t-34 15t-38 -15t-20 -36z" />
    <glyph glyph-name="uring" unicode="&#x16f;" 
d="M521 0h-144l9 66h-2q-10 -14 -24.5 -28t-34 -25t-43.5 -18t-51 -7q-57 0 -90 17.5t-48 48.5t-16 73t6 91l38 268h150l-34 -238q-3 -21 -5 -43.5t3 -41.5t19 -31t43 -12t48.5 10.5t31.5 28t18.5 39.5t9.5 46l34 242h150zM360 545q-23 0 -42 9t-32 24t-18.5 35t-2.5 43
t14.5 43t28.5 35t38.5 24t44.5 9t42 -9t32 -24t19 -35t3 -43t-15 -43t-29 -35t-38.5 -24t-44.5 -9zM325 656q-3 -21 10 -36t34 -15t38 15t20 36t-10 36t-34 15t-38 -15t-20 -36z" />
    <glyph glyph-name="Uhungarumlaut" unicode="&#x170;" horiz-adv-x="741" 
d="M707 273q-9 -63 -35.5 -116t-69.5 -92t-102 -61t-132 -22q-74 0 -127 22t-85 61t-43.5 92t-2.5 116l61 435h156l-60 -429q-5 -33 1.5 -61t23 -48.5t41 -32t55.5 -11.5t58.5 11.5t49.5 32t36.5 48.5t19.5 61l60 429h156zM389 904h204l-194 -144h-132zM653 904h204
l-194 -144h-132z" />
    <glyph glyph-name="uhungarumlaut" unicode="&#x171;" 
d="M521 0h-144l9 66h-2q-10 -14 -24.5 -28t-34 -25t-43.5 -18t-51 -7q-57 0 -90 17.5t-48 48.5t-16 73t6 91l38 268h150l-34 -238q-3 -21 -5 -43.5t3 -41.5t19 -31t43 -12t48.5 10.5t31.5 28t18.5 39.5t9.5 46l34 242h150zM260 708h204l-193 -144h-131zM524 708h204
l-193 -144h-132z" />
    <glyph glyph-name="Uogonek" unicode="&#x172;" horiz-adv-x="741" 
d="M463 -198q-28 -19 -55.5 -30.5t-59.5 -11.5q-21 0 -39.5 6t-31 18t-18.5 29t-3 40q5 33 31.5 68t57.5 62q-68 3 -116.5 26t-77.5 62t-39.5 90.5t-1.5 111.5l61 435h156l-60 -429q-5 -33 1.5 -61t22.5 -48.5t40.5 -32t56.5 -11.5q31 0 58.5 11.5t49.5 32t36.5 48.5
t19.5 61l60 429h156l-61 -435q-8 -57 -30.5 -106t-59 -87.5t-86 -63t-112.5 -31.5q-24 -23 -45 -52t-25 -55q-2 -17 8 -31.5t28 -14.5q14 0 29 7t28 16z" />
    <glyph glyph-name="uogonek" unicode="&#x173;" 
d="M473 -198q-28 -19 -55.5 -30.5t-59.5 -11.5q-21 0 -39.5 6t-31 18t-18.5 29t-3 40q3 19 14 39.5t27 39.5t34.5 36.5t35.5 31.5l9 66h-2q-10 -14 -24.5 -28t-34 -25t-43 -18t-51.5 -7q-57 0 -90 17.5t-48 48.5t-16 73t6 91l38 268h150l-34 -238q-3 -21 -4.5 -43.5t3 -41.5
t18.5 -31t43 -12t48.5 10.5t31.5 28t18.5 39.5t9.5 46l34 242h150l-68 -486h-74q-14 -12 -28.5 -27t-27 -31t-21.5 -32.5t-11 -31.5q-2 -17 8 -31.5t28 -14.5q14 0 29 7t28 16z" />
    <glyph glyph-name="Wcircumflex" unicode="&#x174;" horiz-adv-x="1000" 
d="M97 708h170l49 -454h2l212 454h145l82 -466h2l184 466h158l-306 -708h-139l-88 490h-2l-224 -490h-134zM666 760l-52 78l-73 -78h-135l140 144h163l95 -144h-138z" />
    <glyph glyph-name="wcircumflex" unicode="&#x175;" horiz-adv-x="833" 
d="M63 486h160l56 -305h2l126 305h164l47 -305h2l134 305h152l-241 -486h-148l-56 323h-2l-135 -323h-151zM555 564l-52 78l-73 -78h-135l139 144h163l96 -144h-138z" />
    <glyph glyph-name="Ycircumflex" unicode="&#x176;" horiz-adv-x="648" 
d="M288 302l-209 406h194l113 -265l196 265h185l-323 -406l-42 -302h-156zM491 760l-52 78l-73 -78h-135l140 144h163l95 -144h-138z" />
    <glyph glyph-name="ycircumflex" unicode="&#x177;" horiz-adv-x="556" 
d="M321 -79q-20 -39 -38 -69t-42.5 -50.5t-59 -31t-88.5 -10.5q-58 0 -109 18l37 123q31 -15 67 -15q25 0 42 5.5t29 16t21 25.5t20 35l15 28l-144 490h162l80 -321h2l152 321h154zM432 564l-52 78l-73 -78h-135l139 144h163l96 -144h-138z" />
    <glyph glyph-name="Zacute" unicode="&#x179;" horiz-adv-x="630" 
d="M55 144l419 426h-346l19 138h535l-19 -138l-412 -426h364l-20 -144h-560zM448 904h204l-194 -144h-132z" />
    <glyph glyph-name="zacute" unicode="&#x17a;" horiz-adv-x="500" 
d="M55 150l282 216h-246l17 120h420l-20 -144l-296 -222h270l-16 -120h-432zM349 708h204l-193 -144h-132z" />
    <glyph glyph-name="Zdotaccent" unicode="&#x17b;" horiz-adv-x="630" 
d="M55 144l419 426h-346l19 138h535l-19 -138l-412 -426h364l-20 -144h-560zM441 754q-18 0 -32 7t-23.5 19t-13.5 27.5t-1 32.5q2 16 10.5 31t21 26t28 18t32.5 7q35 0 58 -23t18 -59q-3 -18 -11.5 -33.5t-21.5 -27.5t-30 -18.5t-35 -6.5z" />
    <glyph glyph-name="zdotaccent" unicode="&#x17c;" horiz-adv-x="500" 
d="M55 150l282 216h-246l17 120h420l-20 -144l-296 -222h270l-16 -120h-432zM343 558q-35 0 -55.5 25.5t-15.5 60.5q2 16 10.5 31t21.5 26t28.5 18t32.5 7q35 0 57.5 -23t17.5 -59t-32.5 -61t-64.5 -25z" />
    <glyph glyph-name="Scommaaccent" unicode="&#x218;" 
d="M497 535q-16 24 -47 35.5t-60 11.5q-17 0 -36 -4t-35.5 -12.5t-28.5 -22.5t-15 -34q-3 -24 8.5 -39.5t33 -26t50 -18.5t57.5 -18t56.5 -24t47.5 -35.5t29.5 -54t2.5 -78.5q-8 -59 -36.5 -103t-70 -73t-93 -43t-106.5 -14q-69 0 -125 21t-101 68l129 122
q20 -32 53.5 -49.5t72.5 -17.5q19 0 39 4.5t37 13.5t28.5 23t14.5 33q5 32 -17.5 50.5t-57.5 31.5t-76 26t-75 35t-53.5 58t-11.5 95q8 57 36.5 100t70.5 72t93 43.5t103 14.5q60 0 113.5 -17t92.5 -57zM208 -61h144l-118 -199h-117z" />
    <glyph glyph-name="scommaaccent" unicode="&#x219;" horiz-adv-x="463" 
d="M376 343q-27 41 -82 41q-19 0 -38 -9t-22 -31q-3 -18 15 -26.5t45 -15t58.5 -14t57.5 -23.5t40.5 -43.5t8.5 -73.5q-6 -47 -31 -77.5t-59.5 -49t-75.5 -26t-80 -7.5q-51 0 -101 14.5t-81 51.5l105 101q18 -26 41.5 -39.5t57.5 -13.5q26 0 48 7.5t25 27.5q3 19 -14.5 28.5
t-45 16t-59 14t-58 22.5t-41.5 42.5t-8 73.5q6 43 28 74t53.5 51t69.5 29.5t76 9.5q48 0 95 -14t76 -50zM163 -61h144l-118 -199h-117z" />
    <glyph glyph-name="uni021A" unicode="&#x21a;" 
d="M289 570h-202l19 138h560l-19 -138h-202l-80 -570h-156zM231 -61h144l-118 -199h-117z" />
    <glyph glyph-name="uni021B" unicode="&#x21b;" horiz-adv-x="407" 
d="M435 366h-132l-23 -162q-3 -20 -3 -36.5t5.5 -28.5t19 -18.5t37.5 -6.5q12 0 31.5 2.5t30.5 11.5l-17 -125q-26 -9 -53.5 -12t-53.5 -3q-38 0 -69 8t-52.5 25.5t-31 45.5t-4.5 68l33 231h-96l17 120h96l20 144h150l-20 -144h132zM158 -61h144l-118 -199h-117z" />
    <glyph glyph-name="dotlessj" unicode="&#x237;" horiz-adv-x="260" 
d="M199 -36q-6 -47 -20.5 -84.5t-39 -64t-60.5 -41t-87 -14.5q-17 0 -34.5 1.5t-34.5 6.5l27 133q16 -9 37 -9q19 0 31 10t19 25t10.5 32t5.5 31l70 496h150z" />
    <glyph glyph-name="caron" unicode="&#x2c7;" horiz-adv-x="260" 
d="M164 708l52 -78l73 78h135l-139 -144h-163l-96 144h138z" />
    <glyph glyph-name="uni02C9" unicode="&#x2c9;" horiz-adv-x="260" 
d="M383 591h-340l13 96h340z" />
    <glyph glyph-name="breve" unicode="&#x2d8;" horiz-adv-x="260" 
d="M125 708q1 -15 10.5 -24t23 -14.5t30 -7.5t33.5 -2q39 0 67.5 7.5t44.5 40.5h79q-9 -38 -29 -65.5t-47 -45t-59.5 -25.5t-68.5 -8t-67 7.5t-54 25t-34.5 45t-8.5 66.5h80z" />
    <glyph glyph-name="dotaccent" unicode="&#x2d9;" horiz-adv-x="260" 
d="M207 558q-35 0 -55.5 25.5t-15.5 60.5q2 16 10.5 31t21.5 26t28.5 18t32.5 7q35 0 57.5 -23t17.5 -59t-32.5 -61t-64.5 -25z" />
    <glyph glyph-name="ring" unicode="&#x2da;" horiz-adv-x="260" 
d="M206 545q-23 0 -42 9t-32 24t-18.5 35t-2.5 43t14.5 43t28.5 35t38.5 24t44.5 9t42 -9t32 -24t19 -35t3 -43t-15 -43t-29 -35t-38.5 -24t-44.5 -9zM171 656q-3 -21 10 -36t34 -15t38 15t20 36t-10 36t-34 15t-38 -15t-20 -36z" />
    <glyph glyph-name="ogonek" unicode="&#x2db;" horiz-adv-x="260" 
d="M177 -198q-28 -19 -55.5 -30.5t-59.5 -11.5q-21 0 -38.5 6t-30.5 18t-19 29.5t-3 39.5t16 44.5t31.5 44t39.5 39.5t39 31h68q-14 -11 -30.5 -26.5t-31.5 -34t-26 -37.5t-14 -36q-2 -17 8 -31.5t28 -14.5q14 0 29.5 7t27.5 16z" />
    <glyph glyph-name="hungarumlaut" unicode="&#x2dd;" horiz-adv-x="260" 
d="M98 708h204l-193 -144h-131zM362 708h204l-193 -144h-132z" />
    <glyph glyph-name="uni0394" unicode="&#x394;" horiz-adv-x="693" 
d="M37 78l331 643h165l143 -642l-11 -79h-638zM530 109l-71 293q-3 19 -8 43.5l-10 49t-9 47t-6 38.5h-3q-5 -13 -14 -32.5t-20 -42t-22 -45.5t-20 -43l-162 -308h345z" />
    <glyph glyph-name="uni03A9" unicode="&#x3a9;" horiz-adv-x="751" 
d="M197 112q-21 21 -40 49t-32 63.5t-18 77.5t2 90q9 66 40.5 125t80 103t112 70t136.5 26q77 0 132.5 -28.5t89.5 -74t46.5 -102t4.5 -113.5q-7 -48 -24 -91t-40 -79.5t-51 -65.5t-56 -50v-3h145l-15 -109h-283l11 81q27 16 54 41t49.5 60t40 81.5t25.5 105.5q7 46 1.5 89
t-23.5 75.5t-49 52t-74 19.5q-41 0 -77.5 -18t-65 -50.5t-48 -76.5t-26.5 -96q-8 -54 -4 -99.5t17 -81.5t32.5 -61.5t43.5 -40.5l-11 -81h-284l15 109h143v3z" />
    <glyph glyph-name="uni03BC" unicode="&#x3bc;" 
d="M521 0h-144l9 66h-2q-10 -14 -24.5 -28t-34 -25t-43.5 -18t-51 -7q-17 0 -30 3l-31 -219h-150l101 714h150l-34 -238q-3 -21 -5 -43.5t3 -41.5t19 -31t43 -12t48.5 10.5t31.5 28t18.5 39.5t9.5 46l34 242h150z" />
    <glyph glyph-name="pi" unicode="&#x3c0;" horiz-adv-x="637" 
d="M596 416l-37 -262q-8 -57 -9 -93.5t2 -60.5h-134q-8 16 -7 54.5t9 92.5l38 269h-142q-8 -41 -21 -97t-30 -114.5t-36 -112.5t-37 -92h-134q19 43 38 98t35.5 112t29 111t19.5 95q-37 0 -61.5 -2.5t-42.5 -7.5l-3 89q23 16 66.5 25.5t112.5 9.5h444l-26 -114h-74z" />
    <glyph glyph-name="fraction" unicode="&#x2044;" horiz-adv-x="167" 
d="M348 740l77 -47l-514 -725l-70 43z" />
    <glyph glyph-name="afii61289" unicode="&#x2113;" horiz-adv-x="546" 
d="M545 136q-53 -80 -117 -112.5t-127 -32.5q-46 0 -78 13t-51.5 35t-28.5 52t-9 63q1 5 1 11q-14 -10 -28.5 -20.5t-30.5 -19.5l-25 71q26 19 50 35.5t47 34.5l35 248q10 69 31.5 118.5t52 81.5t67 47t76.5 15q39 0 65.5 -14.5t41.5 -39t19 -57.5t-1 -70q-13 -91 -81 -176
t-177 -175l-5 -39q-5 -51 17 -77.5t60 -26.5q21 0 41.5 8t39.5 21t36 29.5t31 34.5zM294 367q62 60 103.5 119.5t49.5 111.5q5 38 -4.5 60.5t-40.5 22.5q-11 0 -23.5 -7.5t-24 -25.5t-22 -49t-16.5 -77z" />
    <glyph glyph-name="Omega" unicode="&#x2126;" horiz-adv-x="751" 
d="M197 112q-21 21 -40 49t-32 63.5t-18 77.5t2 90q9 66 40.5 125t80 103t112 70t136.5 26q77 0 132.5 -28.5t89.5 -74t46.5 -102t4.5 -113.5q-7 -48 -24 -91t-40 -79.5t-51 -65.5t-56 -50v-3h145l-15 -109h-283l11 81q27 16 54 41t49.5 60t40 81.5t25.5 105.5q7 46 1.5 89
t-23.5 75.5t-49 52t-74 19.5q-41 0 -77.5 -18t-65 -50.5t-48 -76.5t-26.5 -96q-8 -54 -4 -99.5t17 -81.5t32.5 -61.5t43.5 -40.5l-11 -81h-284l15 109h143v3z" />
    <glyph glyph-name="estimated" unicode="&#x212e;" horiz-adv-x="779" 
d="M195 352v-242q79 -79 194 -79q84 0 145 38t112 122l47 -28q-30 -48 -61.5 -82t-68 -56t-79.5 -32t-95 -10q-79 0 -142.5 28.5t-108.5 78.5t-69.5 117.5t-24.5 144.5q0 78 24.5 145t69.5 116.5t108.5 78t142.5 28.5q77 0 140.5 -27t109.5 -76t71 -116.5t25 -148.5h-540z
M584 400v193q-84 81 -197 81t-192 -81v-193h389z" />
    <glyph glyph-name="partialdiff" unicode="&#x2202;" horiz-adv-x="606" 
d="M171 737q13 9 32.5 19.5t45 19.5t57.5 15t70 6q59 0 109 -25t83 -73.5t46 -121t0 -167.5q-13 -93 -44.5 -170t-77.5 -132t-105.5 -85.5t-129.5 -30.5q-57 0 -95 22.5t-60.5 58t-30 78t-1.5 82.5q9 60 33.5 109t59.5 83.5t79 53t92 18.5q33 0 57.5 -9.5t42.5 -22.5t29 -27
t16 -24h1q2 6 3 16.5t2 16.5q7 47 0.5 90.5t-25 76.5t-48.5 52.5t-70 19.5q-49 0 -86 -16.5t-60 -31.5zM287 104q28 0 54 18.5t47.5 47t37.5 64t25 70.5q-1 12 -8.5 26.5t-20.5 28t-31.5 22.5t-42.5 9q-27 0 -50.5 -13t-42.5 -35.5t-32 -51.5t-17 -61q-4 -26 -0.5 -48.5
t14 -39.5t27 -27t39.5 -10h1z" />
    <glyph glyph-name="Delta" unicode="&#x2206;" horiz-adv-x="693" 
d="M37 78l331 643h165l143 -642l-11 -79h-638zM530 109l-71 293q-3 19 -8 43.5l-10 49t-9 47t-6 38.5h-3q-5 -13 -14 -32.5t-20 -42t-22 -45.5t-20 -43l-162 -308h345z" />
    <glyph glyph-name="product" unicode="&#x220f;" horiz-adv-x="759" 
d="M707 583l-95 -680h-135l95 680h-224l-95 -680h-135l95 680h-108l18 122h710l-18 -122h-108z" />
    <glyph glyph-name="summation" unicode="&#x2211;" horiz-adv-x="588" 
d="M23 -97v85l252 316l-242 307v94h519v-115h-334v-4l211 -261l-233 -295v-3h373v-124h-546z" />
    <glyph glyph-name="minus" unicode="&#x2212;" horiz-adv-x="666" 
d="M110 366h548l-18 -126h-548z" />
    <glyph glyph-name="uni2215" unicode="&#x2215;" horiz-adv-x="167" 
d="M348 740l77 -47l-514 -725l-70 43z" />
    <glyph glyph-name="uni2219" unicode="&#x2219;" horiz-adv-x="296" 
d="M95 283q3 19 12.5 36t23.5 29.5t32 19.5t37 7q38 0 61 -27t18 -65q-3 -19 -12.5 -36t-23.5 -29.5t-32 -19.5t-37 -7q-38 0 -61 27t-18 65z" />
    <glyph glyph-name="radical" unicode="&#x221a;" horiz-adv-x="624" 
d="M398 -142h-109l-157 440l-77 -31l-23 74l181 74l109 -322q5 -23 10.5 -46t10.5 -41l1 -1l7.5 42.5t9.5 51.5l178 747h96z" />
    <glyph glyph-name="infinity" unicode="&#x221e;" horiz-adv-x="803" 
d="M753 291q0 -42 -14 -75.5t-37 -57t-53 -35.5t-62 -12q-44 0 -88.5 24.5t-96.5 92.5q-20 -25 -40.5 -46.5t-43.5 -37t-49 -24.5t-57 -9q-32 0 -61.5 12.5t-52 36t-36 55.5t-13.5 71t13 71.5t36 56t54.5 36.5t68.5 13q58 0 101.5 -31t83.5 -83q16 18 34.5 38t41 37t50 28
t61.5 11t63 -12t50.5 -34.5t34 -54t12.5 -70.5v-1zM223 185q21 0 40 8.5t35.5 22.5t32.5 31.5t31 34.5q-16 21 -31 41t-32 35t-36.5 24t-44.5 9q-45 0 -69.5 -30t-24.5 -76q0 -42 27.5 -71t69.5 -29h2zM584 391q-24 0 -44 -10.5t-37.5 -26t-32 -33.5t-26.5 -32
q23 -29 41.5 -49t35 -32t33 -17.5t35.5 -5.5q21 0 38 9.5t28 24t17 32t6 34.5q0 48 -25.5 77t-67.5 29h-1z" />
    <glyph glyph-name="integral" unicode="&#x222b;" horiz-adv-x="410" 
d="M376 769q-8 4 -17.5 6.5t-20.5 2.5q-15 0 -28.5 -6t-23.5 -20q-17 -21 -22.5 -63t-5.5 -105q0 -62 2.5 -119.5t5.5 -115.5t5.5 -118.5t2.5 -129.5q0 -72 -10.5 -121.5t-27.5 -79.5q-21 -42 -58.5 -59t-76.5 -17q-25 0 -47.5 5.5t-34.5 11.5l17 95q8 -3 19.5 -7t25.5 -4
q13 0 25.5 4.5t20.5 15.5q14 19 21.5 53.5t7.5 102.5q0 69 -2.5 131t-5.5 121.5t-5.5 119t-2.5 124.5q0 89 14.5 141.5t48.5 87.5q23 25 56 36t67 11q20 0 37.5 -4t26.5 -8z" />
    <glyph glyph-name="approxequal" unicode="&#x2248;" horiz-adv-x="666" 
d="M623 228q-38 -56 -83.5 -93.5t-93.5 -37.5q-28 0 -50 11t-42.5 24.5t-43 24.5t-50.5 11q-20 0 -45 -25.5t-50 -59.5l-68 78q17 27 39 50.5t46.5 40.5t50 27t50.5 10q31 0 53 -11t41 -23.5t39 -23.5t47 -11q18 0 40.5 21.5t51.5 61.5zM650 426q-38 -60 -82 -92.5
t-92 -32.5q-25 0 -48 11t-45.5 24t-45.5 24t-48 11q-9 0 -20.5 -7.5t-24 -19.5t-25.5 -27t-25 -30l-69 75q17 26 38.5 49t45.5 40t50 26.5t52 9.5q25 0 48.5 -11t45.5 -23.5t43.5 -23.5t43.5 -11q18 0 41.5 23t49.5 61z" />
    <glyph glyph-name="notequal" unicode="&#x2260;" horiz-adv-x="666" 
d="M123 462h279l67 116l100 -43l-43 -73h145l-17 -126h-200l-39 -66h229l-17 -126h-284l-69 -119l-97 38l46 81h-144l17 126h198l38 66h-226z" />
    <glyph glyph-name="lessequal" unicode="&#x2264;" horiz-adv-x="666" 
d="M112 313l16 113l509 193l-19 -140l-341 -108l310 -109l-19 -138zM62 -15l18 123h490l-18 -123h-490z" />
    <glyph glyph-name="greaterequal" unicode="&#x2265;" horiz-adv-x="666" 
d="M86 124l19 138l342 109l-311 108l19 140l455 -193l-16 -113zM62 -15l18 123h490l-18 -123h-490z" />
    <glyph glyph-name="lozenge" unicode="&#x25ca;" horiz-adv-x="623" 
d="M363 -51h-108l-204 403l208 403h109l204 -403zM333 589q-6 14 -11.5 29.5t-8.5 28.5h-3q-7 -28 -20 -58l-119 -234l120 -244q6 -14 11 -29.5t7 -25.5h4q3 11 8.5 28t9.5 25l121 240z" />
    <glyph glyph-name="grave.cap" unicode="&#xe300;" horiz-adv-x="260" 
d="M338 760h-132l-152 144h204z" />
    <glyph glyph-name="acute.cap" unicode="&#xe301;" horiz-adv-x="260" 
d="M258 904h204l-194 -144h-132z" />
    <glyph glyph-name="circumflex.cap" unicode="&#xe302;" horiz-adv-x="260" 
d="M297 760l-52 78l-73 -78h-135l140 144h163l95 -144h-138z" />
    <glyph glyph-name="caron.cap" unicode="&#xe303;" horiz-adv-x="260" 
d="M195 931l52 -78l73 78h135l-139 -144h-163l-96 144h138z" />
    <glyph glyph-name="tilde.cap" unicode="&#xe304;" horiz-adv-x="260" 
d="M41 766q8 25 21.5 50t32 44.5t42 31.5t51.5 12q25 0 44 -6t40 -15q14 -5 26 -10t27 -5q17 0 29 10.5t21 25.5h78q-9 -29 -22 -54t-31 -43.5t-42 -29.5t-55 -11q-22 0 -40 6.5t-35 14.5q-16 8 -30.5 14.5t-29.5 6.5q-17 0 -28.5 -14t-19.5 -28h-79z" />
    <glyph glyph-name="dieresis.cap" unicode="&#xe305;" horiz-adv-x="260" 
d="M130 754q-18 0 -32 7t-23.5 19t-13.5 27.5t-1 32.5q2 16 10.5 31t21 26t28 18t32.5 7q35 0 58 -23t18 -59q-3 -18 -11.5 -33.5t-21.5 -27.5t-30 -18.5t-35 -6.5zM338 754q-18 0 -32 7t-23.5 19t-13.5 27.5t-1 32.5q2 16 10.5 31t21 26t28 18t32.5 7q35 0 58 -23t18 -59
q-3 -18 -11.5 -33.5t-21.5 -27.5t-30 -18.5t-35 -6.5z" />
    <glyph glyph-name="macron.cap" unicode="&#xe306;" horiz-adv-x="260" 
d="M410 787h-340l14 96h340z" />
    <glyph glyph-name="breve.cap" unicode="&#xe307;" horiz-adv-x="260" 
d="M153 904q1 -15 10 -24t23 -14.5t30.5 -7.5t33.5 -2q39 0 67 7.5t45 40.5h79q-10 -38 -30 -65.5t-47 -45t-59.5 -25.5t-68.5 -8q-35 0 -66.5 7.5t-54 25t-34.5 45t-8 66.5h80z" />
    <glyph glyph-name="ring.cap" unicode="&#xe308;" horiz-adv-x="260" 
d="M232 731q-23 0 -41.5 9t-31.5 24t-19 35t-3 43q3 22 14.5 42.5t29 35.5t38.5 24t44 9q22 0 41 -9t32.5 -24t19.5 -35.5t3 -42.5q-3 -23 -15 -43t-29.5 -35t-39 -24t-43.5 -9zM197 842q-3 -21 10 -36t34 -15t38 15t20 36t-10 36t-34 15t-38 -15t-20 -36z" />
    <glyph glyph-name="hungarumlaut.cap" unicode="&#xe309;" horiz-adv-x="260" 
d="M126 904h204l-194 -144h-132zM390 904h204l-194 -144h-132z" />
    <glyph glyph-name="dotaccent.cap" unicode="&#xe30a;" horiz-adv-x="260" 
d="M234 754q-18 0 -32 7t-23.5 19t-13.5 27.5t-1 32.5q2 16 10.5 31t21 26t28 18t32.5 7q35 0 58 -23t18 -59q-3 -18 -11.5 -33.5t-21.5 -27.5t-30 -18.5t-35 -6.5z" />
    <glyph glyph-name="caron.alt" unicode="&#xe30b;" horiz-adv-x="260" 
d="M180 708h134l-108 -199h-98z" />
    <glyph glyph-name="commaaccent" unicode="&#xe30c;" horiz-adv-x="260" 
d="M82 -61h144l-118 -199h-117z" />
    <glyph glyph-name="commaaccent.alt" unicode="&#xe30d;" horiz-adv-x="260" 
d="M243 584h-144l118 199h118z" />
    <glyph glyph-name="uniF8FF" unicode="&#xf8ff;" horiz-adv-x="512" 
d="M222 117v67h56v-67h-56zM225 234l-2 17q0 56 13 81q7 13 18 27.5t28 31.5q32 30 41 47.5t9 35.5q0 36 -22.5 60.5t-53.5 24.5t-53.5 -22t-28.5 -73l-50 8q7 72 44 104.5t91 32.5t89 -35.5t35 -95.5q0 -32 -12.5 -58.5t-50.5 -61.5q-37 -33 -43 -52q-6 -20 -6 -72h-46z
M462 50v617h-412v-617h412zM512 718v-718h-512v718h512z" />
    <glyph glyph-name="gravecmb" unicode="&#x300;" horiz-adv-x="0" 
d="M25 564h-132l-153 144h204z" />
    <glyph glyph-name="acutecmb" unicode="&#x301;" horiz-adv-x="0" 
d="M-139 708h204l-193 -144h-132z" />
    <glyph glyph-name="circumflexcmb" unicode="&#x302;" horiz-adv-x="0" 
d="M0 564l-52 78l-73 -78h-135l139 144h163l96 -144h-138z" />
    <glyph glyph-name="tildecmb" unicode="&#x303;" horiz-adv-x="0" 
d="M-260 570q7 25 20.5 50t32 44.5t42 31.5t51.5 12q25 0 44.5 -6t39.5 -15l26 -10t28 -5q17 0 28.5 10.5t20.5 25.5h78q-9 -29 -21.5 -54t-30.5 -43.5t-42 -29.5t-55 -11q-22 0 -40.5 6.5t-34.5 14.5q-17 8 -31 14.5t-29 6.5q-17 0 -29.5 -14t-18.5 -28h-79z" />
    <glyph glyph-name="macroncmb" unicode="&#x304;" horiz-adv-x="0" 
d="M80 591h-340l13 96h340z" />
    <glyph glyph-name="brevecmb" unicode="&#x306;" horiz-adv-x="0" 
d="M-177 708q1 -15 10.5 -24t23 -14.5t30 -7.5t33.5 -2q39 0 67.5 7.5t44.5 40.5h79q-9 -38 -29 -65.5t-47 -45t-59.5 -25.5t-68.5 -8t-67 7.5t-54 25t-34.5 45t-8.5 66.5h80z" />
    <glyph glyph-name="dotaccentcmb" unicode="&#x307;" horiz-adv-x="0" 
d="M-184 558q-35 0 -55.5 25.5t-15.5 60.5q2 16 10.5 31t21.5 26t28.5 18t32.5 7q35 0 57.5 -23t17.5 -59t-32.5 -61t-64.5 -25z" />
    <glyph glyph-name="dieresiscmb" unicode="&#x308;" horiz-adv-x="0" 
d="M-184 558q-35 0 -55.5 25.5t-15.5 60.5q2 16 10.5 31t21.5 26t28.5 18t32.5 7q35 0 57.5 -23t17.5 -59t-32.5 -61t-64.5 -25zM24 558q-35 0 -55.5 25.5t-15.5 60.5q2 16 10.5 31t21.5 26t28.5 18t32.5 7q35 0 57.5 -23t17.5 -59t-32.5 -61t-64.5 -25z" />
    <glyph glyph-name="hookabovecmb" unicode="&#x309;" horiz-adv-x="0" 
d="M-356 551q3 13 9.5 21.5t19.5 16.5q18 11 34 19t28 16t19 14t9 14q2 13 -9 21t-29 8q-29 0 -45.5 -11.5t-21.5 -26.5l-92 5q16 44 61 67t108 23q28 0 51.5 -5.5t39.5 -16t24 -25.5t3 -35q-1 -12 -7 -22t-16.5 -19.5t-27 -19t-39.5 -21.5q-16 -7 -22 -14.5t-8 -14.5
l-3 -12h-90z" />
    <glyph glyph-name="ringcmb" unicode="&#x30a;" horiz-adv-x="0" 
d="M-162 545q-23 0 -42 9t-32 24t-18.5 35t-2.5 43t14.5 43t28.5 35t38.5 24t44.5 9t42 -9t32 -24t19 -35t3 -43t-15 -43t-29 -35t-38.5 -24t-44.5 -9zM-197 656q-3 -21 10 -36t34 -15t38 15t20 36t-10 36t-34 15t-38 -15t-20 -36z" />
    <glyph glyph-name="hungarumlautcmb" unicode="&#x30b;" horiz-adv-x="0" 
d="M-140 708h204l-193 -144h-131zM124 708h204l-193 -144h-132z" />
    <glyph glyph-name="caroncmb" unicode="&#x30c;" horiz-adv-x="0" 
d="M-122 708l52 -78l73 78h135l-139 -144h-163l-96 144h138z" />
    <glyph glyph-name="doublegravecmb" unicode="&#x30f;" horiz-adv-x="0" 
d="M-31 593h-126l-144 142h193zM-251 590h-124l-146 142h194z" />
    <glyph glyph-name="invertedbrevecmb" unicode="&#x311;" horiz-adv-x="0" 
d="M-288 708q1 -15 10.5 -24t23 -14.5t30 -7.5t33.5 -2q39 0 67.5 7.5t44.5 40.5h79q-9 -38 -29 -65.5t-47 -45t-59.5 -25.5t-68.5 -8t-67 7.5t-54 25t-34.5 45t-8.5 66.5h80z" />
    <glyph glyph-name="horncmb" unicode="&#x31b;" horiz-adv-x="0" 
d="M-188 718h137l-123 -219h-122z" />
    <glyph glyph-name="dotbelowcmb" unicode="&#x323;" horiz-adv-x="0" 
d="M-293 -162q3 19 12.5 36t23.5 29.5t32 19.5t37 7q38 0 61 -27t18 -65q-3 -19 -12.5 -36t-24 -29.5t-32 -19.5t-36.5 -7t-35 7t-26.5 19.5t-15.5 29.5t-2 36z" />
    <glyph glyph-name="dieresisbelowcmb" unicode="&#x324;" horiz-adv-x="0" 
d="M-184 -238q-35 0 -55.5 25.5t-15.5 60.5q2 16 10.5 31t21.5 26t28.5 18t32.5 7q35 0 57.5 -23t17.5 -59t-32.5 -61t-64.5 -25zM24 -238q-35 0 -55.5 25.5t-15.5 60.5q2 16 10.5 31t21.5 26t28.5 18t32.5 7q35 0 57.5 -23t17.5 -59t-32.5 -61t-64.5 -25z" />
    <glyph glyph-name="ringbelowcmb" unicode="&#x325;" horiz-adv-x="0" 
d="M-162 -292q-23 0 -42 9t-32 24t-18.5 35t-2.5 43t14.5 43t28.5 35t38.5 24t44.5 9t42 -9t32 -24t19 -35t3 -43t-15 -43t-29 -35t-38.5 -24t-44.5 -9zM-197 -181q-3 -21 10 -36t34 -15t38 15t20 36t-10 36t-34 15t-38 -15t-20 -36z" />
    <glyph glyph-name="commabelowcmb" unicode="&#x326;" horiz-adv-x="0" 
d="M-186 -70h140l-126 -239h-124z" />
    <glyph glyph-name="cedillacmb" unicode="&#x327;" horiz-adv-x="0" 
d="M-102 -60q22 0 44 -2.5t39 -11t26 -25t5 -44.5q-4 -27 -21 -46t-39.5 -30t-47.5 -16t-44 -5q-30 0 -62.5 8.5t-57.5 21.5l32 47q11 -5 29 -11t44 -6q23 0 45.5 6t25.5 26q2 18 -14.5 26t-31.5 8q-10 0 -18.5 -2t-18.5 -6l-28 29l76 93h67z" />
    <glyph glyph-name="ogonekcmb" unicode="&#x328;" horiz-adv-x="0" 
d="M-51 -198q-28 -19 -55.5 -30.5t-59.5 -11.5q-21 0 -38.5 6t-30.5 18t-19 29.5t-3 39.5t16 44.5t31.5 44t39.5 39.5t39 31h68q-14 -11 -30.5 -26.5t-31.5 -34t-26 -37.5t-14 -36q-2 -17 8 -31.5t28 -14.5q14 0 29.5 7t27.5 16z" />
    <glyph glyph-name="circumflexbelowcmb" unicode="&#x32d;" horiz-adv-x="0" 
d="M0 -214l-52 78l-73 -78h-135l139 144h163l96 -144h-138z" />
    <glyph glyph-name="brevebelowcmb" unicode="&#x32e;" horiz-adv-x="0" 
d="M-177 -70q1 -15 10.5 -24t23 -14.5t30 -7.5t33.5 -2q39 0 67.5 7.5t44.5 40.5h79q-9 -38 -29 -65.5t-47 -45t-59.5 -25.5t-68.5 -8t-67 7.5t-54 25t-34.5 45t-8.5 66.5h80z" />
    <glyph glyph-name="tildebelowcmb" unicode="&#x330;" horiz-adv-x="0" 
d="M-260 -208q7 25 20.5 50t32 44.5t42 31.5t51.5 12q25 0 44.5 -6t39.5 -15l26 -10t28 -5q17 0 28.5 10.5t20.5 25.5h78q-9 -29 -21.5 -54t-30.5 -43.5t-42 -29.5t-55 -11q-22 0 -40.5 6.5t-34.5 14.5q-17 8 -31 14.5t-29 6.5q-17 0 -29.5 -14t-18.5 -28h-79z" />
    <glyph glyph-name="macronbelowcmb" unicode="&#x331;" horiz-adv-x="0" 
d="M80 -166h-340l13 96h340z" />
    <glyph glyph-name="clickdental" unicode="&#x1c0;" horiz-adv-x="222" 
d="M279 750l-141 -1000h-126l141 1000h126z" />
    <glyph glyph-name="clicklateral" unicode="&#x1c1;" horiz-adv-x="444" 
d="M279 750l-141 -1000h-126l141 1000h126zM501 750l-141 -1000h-126l141 1000h126z" />
    <glyph glyph-name="centigrade" unicode="&#x2103;" horiz-adv-x="1085" 
d="M264 460q18 0 35.5 7t31 19t22.5 28t12 34q5 37 -17 62.5t-59 25.5q-18 0 -35.5 -7t-31 -19t-22.5 -28t-11 -34q-5 -37 16.5 -62.5t58.5 -25.5zM252 376q-36 0 -65 13.5t-49 37t-29 54.5t-4 67t23 67t44.5 54.5t59.5 37t69 13.5t65 -13.5t49.5 -37t29.5 -54.5t4 -67
t-23 -67t-45 -54.5t-60 -37t-69 -13.5zM1008 524q-20 28 -51 43t-75 15t-84 -17t-71.5 -47.5t-53 -72.5t-28.5 -91q-7 -50 2.5 -91.5t32 -72t57 -47.5t76.5 -17q48 0 88 20t69 56l116 -97q-54 -63 -127 -93t-146 -30q-83 0 -149.5 26t-110.5 74.5t-63 117.5t-7 154t50.5 154
t96 117.5t131.5 74.5t157 26q30 0 61.5 -5.5t61.5 -17.5t56.5 -32t44.5 -49z" />
    <glyph glyph-name="fahrenheit" unicode="&#x2109;" horiz-adv-x="993" 
d="M264 460q18 0 35.5 7t31 19t22.5 28t12 34q5 37 -17 62.5t-59 25.5q-18 0 -35.5 -7t-31 -19t-22.5 -28t-11 -34q-5 -37 16.5 -62.5t58.5 -25.5zM252 376q-36 0 -65 13.5t-49 37t-29 54.5t-4 67t23 67t44.5 54.5t59.5 37t69 13.5t65 -13.5t49.5 -37t29.5 -54.5t4 -67
t-23 -67t-45 -54.5t-60 -37t-69 -13.5zM577 708h475l-20 -144h-319l-20 -144h295l-21 -144h-295l-38 -276h-156z" />
    <glyph glyph-name="kelvin" unicode="&#x212a;" horiz-adv-x="722" 
d="M177 708h156l-41 -294l316 294h204l-361 -329l289 -379h-218l-241 336l-47 -336h-156z" />
    <glyph glyph-name="Oneroman" unicode="&#x2160;" horiz-adv-x="296" 
d="M169 708h156l-99 -708h-156z" />
    <glyph glyph-name="Tworoman" unicode="&#x2161;" horiz-adv-x="592" 
d="M169 708h156l-99 -708h-156zM465 708h156l-99 -708h-156z" />
    <glyph glyph-name="Threeroman" unicode="&#x2162;" horiz-adv-x="888" 
d="M169 708h156l-99 -708h-156zM465 708h156l-99 -708h-156zM761 708h156l-99 -708h-156z" />
    <glyph glyph-name="Fourroman" unicode="&#x2163;" horiz-adv-x="1000" 
d="M169 708h156l-99 -708h-156zM397 708h178l110 -464h2l243 464h167l-391 -708h-125z" />
    <glyph glyph-name="Fiveroman" unicode="&#x2164;" horiz-adv-x="704" 
d="M101 708h178l110 -464h2l243 464h167l-391 -708h-125z" />
    <glyph glyph-name="Sixroman" unicode="&#x2165;" horiz-adv-x="1000" 
d="M101 708h178l110 -464h2l243 464h167l-391 -708h-125zM873 708h156l-99 -708h-156z" />
    <glyph glyph-name="Sevenroman" unicode="&#x2166;" horiz-adv-x="1296" 
d="M101 708h178l110 -464h2l243 464h167l-391 -708h-125zM873 708h156l-99 -708h-156zM1169 708h156l-99 -708h-156z" />
    <glyph glyph-name="Eightroman" unicode="&#x2167;" horiz-adv-x="1592" 
d="M101 708h178l110 -464h2l243 464h167l-391 -708h-125zM873 708h156l-99 -708h-156zM1169 708h156l-99 -708h-156zM1465 708h156l-99 -708h-156z" />
    <glyph glyph-name="Nineroman" unicode="&#x2168;" horiz-adv-x="1018" 
d="M169 708h156l-99 -708h-156zM596 370l-187 338h196l116 -248l180 248h189l-276 -335l204 -373h-196l-133 285l-208 -285h-185z" />
    <glyph glyph-name="Tenroman" unicode="&#x2169;" horiz-adv-x="722" 
d="M300 370l-187 338h196l116 -248l180 248h189l-276 -335l204 -373h-196l-133 285l-208 -285h-185z" />
    <glyph glyph-name="Elevenroman" unicode="&#x216a;" horiz-adv-x="1018" 
d="M300 370l-187 338h196l116 -248l180 248h189l-276 -335l204 -373h-196l-133 285l-208 -285h-185zM891 708h156l-99 -708h-156z" />
    <glyph glyph-name="Twelveroman" unicode="&#x216b;" horiz-adv-x="1314" 
d="M300 370l-187 338h196l116 -248l180 248h189l-276 -335l204 -373h-196l-133 285l-208 -285h-185zM891 708h156l-99 -708h-156zM1187 708h156l-99 -708h-156z" />
    <glyph glyph-name="uni216C" unicode="&#x216c;" horiz-adv-x="537" 
d="M177 708h156l-79 -564h289l-20 -144h-445z" />
    <glyph glyph-name="uni216D" unicode="&#x216d;" horiz-adv-x="685" 
d="M608 524q-20 28 -51 43t-75 15t-84 -17t-71.5 -47.5t-53 -72.5t-28.5 -91q-7 -50 2.5 -91.5t32 -72t57 -47.5t76.5 -17q48 0 88 20t69 56l116 -97q-54 -63 -127 -93t-146 -30q-83 0 -149.5 26t-110.5 74.5t-63 117.5t-7 154t50.5 154t96 117.5t131.5 74.5t157 26
q30 0 61.5 -5.5t61.5 -17.5t56.5 -32t44.5 -49z" />
    <glyph glyph-name="uni216E" unicode="&#x216e;" horiz-adv-x="759" 
d="M171 708h234q85 0 158.5 -19t125 -61.5t75 -110.5t10.5 -165q-12 -86 -53.5 -151.5t-102.5 -110t-136.5 -67.5t-154.5 -23h-255zM248 144h81q54 0 102 11t85.5 36.5t62.5 67t34 101.5q7 52 -6.5 90.5t-43.5 63.5t-72.5 37.5t-91.5 12.5h-92z" />
    <glyph glyph-name="uni216F" unicode="&#x216f;" horiz-adv-x="944" 
d="M171 708h236l98 -462h2l229 462h235l-99 -708h-156l76 543h-2l-262 -543h-119l-103 543h-2l-76 -543h-156z" />
    <glyph glyph-name="oneroman" unicode="&#x2170;" horiz-adv-x="260" 
d="M123 486h150l-68 -486h-150zM132 639q3 18 12 34t22.5 27.5t30.5 18.5t35 7q36 0 57.5 -25.5t16.5 -61.5q-2 -18 -11 -34t-22.5 -27.5t-30.5 -18.5t-35 -7t-33 7t-25 18.5t-14.5 27.5t-2.5 34z" />
    <glyph glyph-name="tworoman" unicode="&#x2171;" horiz-adv-x="520" 
d="M123 486h150l-68 -486h-150zM132 639q3 18 12 34t22.5 27.5t30.5 18.5t35 7q36 0 57.5 -25.5t16.5 -61.5q-2 -18 -11 -34t-22.5 -27.5t-30.5 -18.5t-35 -7t-33 7t-25 18.5t-14.5 27.5t-2.5 34zM383 486h150l-68 -486h-150zM392 639q3 18 12 34t22.5 27.5t30.5 18.5t35 7
q36 0 57.5 -25.5t16.5 -61.5q-2 -18 -11 -34t-22.5 -27.5t-30.5 -18.5t-35 -7t-33 7t-25 18.5t-14.5 27.5t-2.5 34z" />
    <glyph glyph-name="threeroman" unicode="&#x2172;" horiz-adv-x="780" 
d="M123 486h150l-68 -486h-150zM132 639q3 18 12 34t22.5 27.5t30.5 18.5t35 7q36 0 57.5 -25.5t16.5 -61.5q-2 -18 -11 -34t-22.5 -27.5t-30.5 -18.5t-35 -7t-33 7t-25 18.5t-14.5 27.5t-2.5 34zM383 486h150l-68 -486h-150zM392 639q3 18 12 34t22.5 27.5t30.5 18.5t35 7
q36 0 57.5 -25.5t16.5 -61.5q-2 -18 -11 -34t-22.5 -27.5t-30.5 -18.5t-35 -7t-33 7t-25 18.5t-14.5 27.5t-2.5 34zM643 486h150l-68 -486h-150zM652 639q3 18 12 34t22.5 27.5t30.5 18.5t35 7q36 0 57.5 -25.5t16.5 -61.5q-2 -18 -11 -34t-22.5 -27.5t-30.5 -18.5t-35 -7
t-33 7t-25 18.5t-14.5 27.5t-2.5 34z" />
    <glyph glyph-name="fourroman" unicode="&#x2173;" horiz-adv-x="816" 
d="M123 486h150l-68 -486h-150zM132 639q3 18 12 34t22.5 27.5t30.5 18.5t35 7q36 0 57.5 -25.5t16.5 -61.5q-2 -18 -11 -34t-22.5 -27.5t-30.5 -18.5t-35 -7t-33 7t-25 18.5t-14.5 27.5t-2.5 34zM330 486h162l76 -330h2l161 330h151l-260 -486h-159z" />
    <glyph glyph-name="fiveroman" unicode="&#x2174;" horiz-adv-x="556" 
d="M70 486h162l76 -330h2l161 330h151l-260 -486h-159z" />
    <glyph glyph-name="sixroman" unicode="&#x2175;" horiz-adv-x="816" 
d="M70 486h162l76 -330h2l161 330h151l-260 -486h-159zM679 486h150l-68 -486h-150zM688 639q3 18 12 34t22.5 27.5t30.5 18.5t35 7q36 0 57.5 -25.5t16.5 -61.5q-2 -18 -11 -34t-22.5 -27.5t-30.5 -18.5t-35 -7t-33 7t-25 18.5t-14.5 27.5t-2.5 34z" />
    <glyph glyph-name="sevenroman" unicode="&#x2176;" horiz-adv-x="1076" 
d="M70 486h162l76 -330h2l161 330h151l-260 -486h-159zM679 486h150l-68 -486h-150zM688 639q3 18 12 34t22.5 27.5t30.5 18.5t35 7q36 0 57.5 -25.5t16.5 -61.5q-2 -18 -11 -34t-22.5 -27.5t-30.5 -18.5t-35 -7t-33 7t-25 18.5t-14.5 27.5t-2.5 34zM939 486h150l-68 -486
h-150zM948 639q3 18 12 34t22.5 27.5t30.5 18.5t35 7q36 0 57.5 -25.5t16.5 -61.5q-2 -18 -11 -34t-22.5 -27.5t-30.5 -18.5t-35 -7t-33 7t-25 18.5t-14.5 27.5t-2.5 34z" />
    <glyph glyph-name="eightroman" unicode="&#x2177;" horiz-adv-x="1336" 
d="M70 486h162l76 -330h2l161 330h151l-260 -486h-159zM679 486h150l-68 -486h-150zM688 639q3 18 12 34t22.5 27.5t30.5 18.5t35 7q36 0 57.5 -25.5t16.5 -61.5q-2 -18 -11 -34t-22.5 -27.5t-30.5 -18.5t-35 -7t-33 7t-25 18.5t-14.5 27.5t-2.5 34zM939 486h150l-68 -486
h-150zM948 639q3 18 12 34t22.5 27.5t30.5 18.5t35 7q36 0 57.5 -25.5t16.5 -61.5q-2 -18 -11 -34t-22.5 -27.5t-30.5 -18.5t-35 -7t-33 7t-25 18.5t-14.5 27.5t-2.5 34zM1199 486h150l-68 -486h-150zM1208 639q3 18 12 34t22.5 27.5t30.5 18.5t35 7q36 0 57.5 -25.5
t16.5 -61.5q-2 -18 -11 -34t-22.5 -27.5t-30.5 -18.5t-35 -7t-33 7t-25 18.5t-14.5 27.5t-2.5 34z" />
    <glyph glyph-name="nineroman" unicode="&#x2178;" horiz-adv-x="816" 
d="M123 486h150l-68 -486h-150zM132 639q3 18 12 34t22.5 27.5t30.5 18.5t35 7q36 0 57.5 -25.5t16.5 -61.5q-2 -18 -11 -34t-22.5 -27.5t-30.5 -18.5t-35 -7t-33 7t-25 18.5t-14.5 27.5t-2.5 34zM480 260l-130 226h177l67 -132l102 132h167l-190 -226l151 -260h-177
l-84 162l-136 -162h-175z" />
    <glyph glyph-name="tenroman" unicode="&#x2179;" horiz-adv-x="556" 
d="M220 260l-130 226h177l67 -132l102 132h167l-190 -226l151 -260h-177l-84 162l-136 -162h-175z" />
    <glyph glyph-name="elevenroman" unicode="&#x217a;" horiz-adv-x="816" 
d="M220 260l-130 226h177l67 -132l102 132h167l-190 -226l151 -260h-177l-84 162l-136 -162h-175zM679 486h150l-68 -486h-150zM688 639q3 18 12 34t22.5 27.5t30.5 18.5t35 7q36 0 57.5 -25.5t16.5 -61.5q-2 -18 -11 -34t-22.5 -27.5t-30.5 -18.5t-35 -7t-33 7t-25 18.5
t-14.5 27.5t-2.5 34z" />
    <glyph glyph-name="twelveroman" unicode="&#x217b;" horiz-adv-x="1076" 
d="M220 260l-130 226h177l67 -132l102 132h167l-190 -226l151 -260h-177l-84 162l-136 -162h-175zM679 486h150l-68 -486h-150zM688 639q3 18 12 34t22.5 27.5t30.5 18.5t35 7q36 0 57.5 -25.5t16.5 -61.5q-2 -18 -11 -34t-22.5 -27.5t-30.5 -18.5t-35 -7t-33 7t-25 18.5
t-14.5 27.5t-2.5 34zM939 486h150l-68 -486h-150zM948 639q3 18 12 34t22.5 27.5t30.5 18.5t35 7q36 0 57.5 -25.5t16.5 -61.5q-2 -18 -11 -34t-22.5 -27.5t-30.5 -18.5t-35 -7t-33 7t-25 18.5t-14.5 27.5t-2.5 34z" />
    <glyph glyph-name="uni217C" unicode="&#x217c;" horiz-adv-x="260" 
d="M161 756h150l-106 -756h-150z" />
    <glyph glyph-name="uni217D" unicode="&#x217d;" horiz-adv-x="482" 
d="M428 329q-9 16 -27.5 26.5t-41.5 10.5q-57 0 -93 -34t-44 -89t18.5 -89t83.5 -34q25 0 45 11t35 26l84 -104q-41 -36 -90 -50.5t-92 -14.5q-56 0 -103 18t-78.5 51.5t-46 80.5t-6.5 105t35.5 105t68.5 80.5t93 51.5t108 18q43 0 88.5 -14.5t75.5 -50.5z" />
    <glyph glyph-name="uni217E" unicode="&#x217e;" horiz-adv-x="630" 
d="M563 0h-138l8 64h-2q-10 -13 -26.5 -26.5t-37.5 -24.5t-45.5 -18t-49.5 -7q-54 0 -95.5 18.5t-68.5 52t-37.5 79.5t-2.5 101q7 51 29 97.5t55.5 82.5t77.5 57.5t96 21.5q47 0 86 -14.5t59 -49.5h2l46 322h150zM459 243q8 55 -19 89t-84 34t-93 -34t-44 -89t18.5 -89
t83.5 -34t93.5 34t44.5 89z" />
    <glyph glyph-name="thousandroman" unicode="&#x217f;" horiz-adv-x="870" 
d="M121 486h144l-9 -66h2q9 14 24 28t34 25t43 18t51 7q51 0 88 -21t50 -66q33 47 72.5 67t93.5 20q49 0 80 -16.5t47 -45t19 -67t-3 -82.5l-40 -287h-150l39 283q5 34 -6 58.5t-48 24.5q-26 0 -44.5 -8.5t-31.5 -23.5t-20 -35t-10 -42l-36 -257h-150l36 257q2 13 3.5 32
t-2 36t-15.5 29t-38 12q-29 0 -48.5 -10.5t-31.5 -28t-18 -39.5t-9 -46l-34 -242h-150z" />
    <glyph glyph-name="Ibreve" unicode="&#x12c;" horiz-adv-x="296" 
d="M169 708h156l-99 -708h-156zM162 902q1 -15 10.5 -24t23 -14.5t30 -7.5t33.5 -2q39 0 67.5 7.5t44.5 40.5h79q-9 -38 -29 -65.5t-47 -45t-59.5 -25.5t-68.5 -8t-67 7.5t-54 25t-34.5 45t-8.5 66.5h80z" />
    <glyph glyph-name="ibreve" unicode="&#x12d;" horiz-adv-x="260" 
d="M123 486h150l-68 -486h-150zM115 681q1 -15 10.5 -24t23 -14.5t30 -7.5t33.5 -2q39 0 67.5 7.5t44.5 40.5h79q-9 -38 -29 -65.5t-47 -45t-59.5 -25.5t-68.5 -8t-67 7.5t-54 25t-34.5 45t-8.5 66.5h80z" />
    <glyph glyph-name="clickretroflex" unicode="&#x1c3;" horiz-adv-x="444" 
d="M329 234h-150l67 474h150zM142 86q3 19 12.5 36t23.5 29.5t32 19.5t37 7q38 0 61 -27t18 -65q-3 -19 -12.5 -36t-24 -29.5t-32 -19.5t-36.5 -7t-35 7t-26.5 19.5t-15.5 29.5t-2 36z" />
    <glyph glyph-name="DZcaron" unicode="&#x1c4;" horiz-adv-x="1389" 
d="M171 708h234q85 0 158.5 -19t125 -61.5t75 -110.5t10.5 -165q-12 -86 -53.5 -151.5t-102.5 -110t-136.5 -67.5t-154.5 -23h-255zM248 144h81q54 0 102 11t85.5 36.5t62.5 67t34 101.5q7 52 -6.5 90.5t-43.5 63.5t-72.5 37.5t-91.5 12.5h-92zM814 144l419 426h-346l19 138
h535l-19 -138l-412 -426h364l-20 -144h-560zM1123 902l52 -78l73 78h135l-139 -144h-163l-96 144h138z" />
    <glyph glyph-name="Dzcaron" unicode="&#x1c5;" horiz-adv-x="1259" 
d="M171 708h234q85 0 158.5 -19t125 -61.5t75 -110.5t10.5 -165q-12 -86 -53.5 -151.5t-102.5 -110t-136.5 -67.5t-154.5 -23h-255zM248 144h81q54 0 102 11t85.5 36.5t62.5 67t34 101.5q7 52 -6.5 90.5t-43.5 63.5t-72.5 37.5t-91.5 12.5h-92zM814 150l282 216h-246l17 120
h420l-20 -144l-296 -222h270l-16 -120h-432zM1031 681l52 -78l73 78h135l-139 -144h-163l-96 144h138z" />
    <glyph glyph-name="dzcaron" unicode="&#x1c6;" horiz-adv-x="1130" 
d="M563 0h-138l8 64h-2q-10 -13 -26.5 -26.5t-37.5 -24.5t-45.5 -18t-49.5 -7q-54 0 -95.5 18.5t-68.5 52t-37.5 79.5t-2.5 101q7 51 29 97.5t55.5 82.5t77.5 57.5t96 21.5q47 0 86 -14.5t59 -49.5h2l46 322h150zM459 243q8 55 -19 89t-84 34t-93 -34t-44 -89t18.5 -89
t83.5 -34t93.5 34t44.5 89zM685 150l282 216h-246l17 120h420l-20 -144l-296 -222h270l-16 -120h-432zM902 681l52 -78l73 78h135l-139 -144h-163l-96 144h138z" />
    <glyph glyph-name="LJ" unicode="&#x1c7;" horiz-adv-x="1037" 
d="M177 708h156l-79 -564h289l-20 -144h-445zM1008 237q-7 -49 -22 -95t-44 -81.5t-76.5 -57t-119.5 -21.5q-84 0 -136.5 40t-57.5 125l148 35q-1 -26 17 -44t44 -18q27 0 44 13.5t27 33.5t14.5 43.5t7.5 43.5l64 454h156z" />
    <glyph glyph-name="Lj" unicode="&#x1c8;" horiz-adv-x="797" 
d="M177 708h156l-79 -564h289l-20 -144h-445zM736 -36q-6 -47 -20 -84.5t-38.5 -64t-61 -41t-87.5 -14.5q-17 0 -35 1.5t-34 6.5l27 133q16 -9 37 -9q19 0 31 10t19 25t10.5 32t5.5 31l70 496h150zM669 639q3 18 12 34t22.5 27.5t30.5 18.5t35 7q36 0 57.5 -25.5t16.5 -61.5
q-2 -18 -11 -34t-22.5 -27.5t-30.5 -18.5t-35 -7t-33 7t-25 18.5t-14.5 27.5t-2.5 34z" />
    <glyph glyph-name="lj" unicode="&#x1c9;" horiz-adv-x="520" 
d="M161 756h150l-106 -756h-150zM459 -36q-6 -47 -20 -84.5t-38.5 -64t-61 -41t-87.5 -14.5q-17 0 -35 1.5t-34 6.5l27 133q16 -9 37 -9q19 0 31 10t19 25t10.5 32t5.5 31l70 496h150zM392 639q3 18 12 34t22.5 27.5t30.5 18.5t35 7q36 0 57.5 -25.5t16.5 -61.5
q-2 -18 -11 -34t-22.5 -27.5t-30.5 -18.5t-35 -7t-33 7t-25 18.5t-14.5 27.5t-2.5 34z" />
    <glyph glyph-name="NJ" unicode="&#x1ca;" horiz-adv-x="1315" 
d="M171 708h212l232 -492h2l69 492h156l-99 -708h-204l-239 504h-2l-70 -504h-156zM1286 237q-7 -49 -22 -95t-44 -81.5t-76.5 -57t-119.5 -21.5q-84 0 -136.5 40t-57.5 125l148 35q-1 -26 17 -44t44 -18q27 0 44 13.5t27 33.5t14.5 43.5t7.5 43.5l64 454h156z" />
    <glyph glyph-name="Nj" unicode="&#x1cb;" horiz-adv-x="1075" 
d="M171 708h212l232 -492h2l69 492h156l-99 -708h-204l-239 504h-2l-70 -504h-156zM1014 -36q-6 -47 -20 -84.5t-38.5 -64t-61 -41t-87.5 -14.5q-17 0 -35 1.5t-34 6.5l27 133q16 -9 37 -9q19 0 31 10t19 25t10.5 32t5.5 31l70 496h150zM947 639q3 18 12 34t22.5 27.5
t30.5 18.5t35 7q36 0 57.5 -25.5t16.5 -61.5q-2 -18 -11 -34t-22.5 -27.5t-30.5 -18.5t-35 -7t-33 7t-25 18.5t-14.5 27.5t-2.5 34z" />
    <glyph glyph-name="nj" unicode="&#x1cc;" horiz-adv-x="834" 
d="M121 486h144l-9 -66h2q9 14 24 28t34 25t43 18t51 7q57 0 90 -17.5t48 -48.5t16 -73t-6 -91l-37 -268h-150l33 238q3 21 5 43.5t-3 41.5t-19 31t-43 12t-48.5 -10.5t-31.5 -28t-18 -39.5t-9 -46l-34 -242h-150zM773 -36q-6 -47 -20 -84.5t-38.5 -64t-61 -41t-87.5 -14.5
q-17 0 -35 1.5t-34 6.5l27 133q16 -9 37 -9q19 0 31 10t19 25t10.5 32t5.5 31l70 496h150zM706 639q3 18 12 34t22.5 27.5t30.5 18.5t35 7q36 0 57.5 -25.5t16.5 -61.5q-2 -18 -11 -34t-22.5 -27.5t-30.5 -18.5t-35 -7t-33 7t-25 18.5t-14.5 27.5t-2.5 34z" />
    <glyph glyph-name="Acaron" unicode="&#x1cd;" horiz-adv-x="741" 
d="M404 708h129l209 -708h-176l-40 150h-275l-80 -150h-172zM435 502l-117 -220h173zM376 902l52 -78l73 78h135l-139 -144h-163l-96 144h138z" />
    <glyph glyph-name="acaron" unicode="&#x1ce;" horiz-adv-x="537" 
d="M366 61h-2q-30 -39 -74 -56t-90 -17q-34 0 -64 9.5t-51.5 28.5t-31.5 47t-5 65q9 63 47.5 97.5t91 51t110 19.5t104.5 3q5 40 -20 63.5t-64 23.5q-37 0 -69.5 -15.5t-60.5 -42.5l-68 82q47 39 105.5 58.5t118.5 19.5q66 0 106.5 -16.5t61.5 -48.5t24.5 -78.5t-5.5 -107.5
l-34 -247h-138zM350 213q-17 0 -42.5 -1.5t-50 -8.5t-43 -21t-21.5 -39q-2 -14 3 -23.5t14 -16.5t21.5 -10t24.5 -3q22 0 43.5 6t39 17t29.5 28t15 40l4 32h-37zM283 693l52 -78l73 78h135l-139 -144h-163l-96 144h138z" />
    <glyph glyph-name="Icaron" unicode="&#x1cf;" horiz-adv-x="296" 
d="M169 708h156l-99 -708h-156zM203 902l52 -78l73 78h135l-139 -144h-163l-96 144h138z" />
    <glyph glyph-name="icaron" unicode="&#x1d0;" horiz-adv-x="260" 
d="M123 486h150l-68 -486h-150zM156 681l52 -78l73 78h135l-139 -144h-163l-96 144h138z" />
    <glyph glyph-name="Ocaron" unicode="&#x1d1;" horiz-adv-x="832" 
d="M83 354q12 85 50.5 154t96 117.5t131.5 74.5t157 26t149 -26t110 -74.5t63 -117.5t7 -154t-50 -154t-96 -117.5t-131.5 -74.5t-156.5 -26t-149.5 26t-110.5 74.5t-63 117.5t-7 154zM245 354q-7 -50 3 -91.5t34.5 -72t62.5 -47.5t88 -17t93 17t76 47.5t54.5 72t28.5 91.5
q7 49 -2.5 91t-34.5 72.5t-63 47.5t-88 17t-93 -17t-76 -47.5t-54.5 -72.5t-28.5 -91zM472 920l52 -78l73 78h135l-139 -144h-163l-96 144h138z" />
    <glyph glyph-name="ocaron" unicode="&#x1d2;" horiz-adv-x="610" 
d="M69 243q8 58 35.5 105t68.5 80.5t93 51.5t108 18t103 -18t79 -51.5t46.5 -80.5t6.5 -105t-36 -105t-69 -80.5t-93 -51.5t-108 -18t-103 18t-78.5 51.5t-46 80.5t-6.5 105zM219 243q-8 -55 18.5 -89t83.5 -34t93.5 34t44.5 89t-19 89t-84 34t-93 -34t-44 -89zM331 693
l52 -78l73 78h135l-139 -144h-163l-96 144h138z" />
    <glyph glyph-name="Ucaron" unicode="&#x1d3;" horiz-adv-x="741" 
d="M707 273q-9 -63 -35.5 -116t-69.5 -92t-102 -61t-132 -22q-74 0 -127 22t-85 61t-43.5 92t-2.5 116l61 435h156l-60 -429q-5 -33 1.5 -61t23 -48.5t41 -32t55.5 -11.5t58.5 11.5t49.5 32t36.5 48.5t19.5 61l60 429h156zM441 902l52 -78l73 78h135l-139 -144h-163l-96 144
h138z" />
    <glyph glyph-name="ucaron" unicode="&#x1d4;" 
d="M521 0h-144l9 66h-2q-10 -14 -24.5 -28t-34 -25t-43.5 -18t-51 -7q-57 0 -90 17.5t-48 48.5t-16 73t6 91l38 268h150l-34 -238q-3 -21 -5 -43.5t3 -41.5t19 -31t43 -12t48.5 10.5t31.5 28t18.5 39.5t9.5 46l34 242h150zM324 681l52 -78l73 78h135l-139 -144h-163l-96 144
h138z" />
    <glyph glyph-name="Udieresismacron" unicode="&#x1d5;" horiz-adv-x="741" 
d="M707 273q-9 -63 -35.5 -116t-69.5 -92t-102 -61t-132 -22q-74 0 -127 22t-85 61t-43.5 92t-2.5 116l61 435h156l-60 -429q-5 -33 1.5 -61t23 -48.5t41 -32t55.5 -11.5t58.5 11.5t49.5 32t36.5 48.5t19.5 61l60 429h156zM387 758q-35 0 -55.5 25.5t-15.5 60.5
q2 16 10.5 31t21.5 26t28.5 18t32.5 7q35 0 57.5 -23t17.5 -59t-32.5 -61t-64.5 -25zM595 758q-35 0 -55.5 25.5t-15.5 60.5q2 16 10.5 31t21.5 26t28.5 18t32.5 7q35 0 57.5 -23t17.5 -59t-32.5 -61t-64.5 -25zM693 976h-340l13 96h340z" />
    <glyph glyph-name="udieresismacron" unicode="&#x1d6;" 
d="M521 0h-144l9 66h-2q-10 -14 -24.5 -28t-34 -25t-43.5 -18t-51 -7q-57 0 -90 17.5t-48 48.5t-16 73t6 91l38 268h150l-34 -238q-3 -21 -5 -43.5t3 -41.5t19 -31t43 -12t48.5 10.5t31.5 28t18.5 39.5t9.5 46l34 242h150zM269 537q-35 0 -55.5 25.5t-15.5 60.5
q2 16 10.5 31t21.5 26t28.5 18t32.5 7q35 0 57.5 -23t17.5 -59t-32.5 -61t-64.5 -25zM477 537q-35 0 -55.5 25.5t-15.5 60.5q2 16 10.5 31t21.5 26t28.5 18t32.5 7q35 0 57.5 -23t17.5 -59t-32.5 -61t-64.5 -25zM574 754h-340l13 96h340z" />
    <glyph glyph-name="Udieresisacute" unicode="&#x1d7;" horiz-adv-x="741" 
d="M707 273q-9 -63 -35.5 -116t-69.5 -92t-102 -61t-132 -22q-74 0 -127 22t-85 61t-43.5 92t-2.5 116l61 435h156l-60 -429q-5 -33 1.5 -61t23 -48.5t41 -32t55.5 -11.5t58.5 11.5t49.5 32t36.5 48.5t19.5 61l60 429h156zM387 758q-35 0 -55.5 25.5t-15.5 60.5
q2 16 10.5 31t21.5 26t28.5 18t32.5 7q35 0 57.5 -23t17.5 -59t-32.5 -61t-64.5 -25zM595 758q-35 0 -55.5 25.5t-15.5 60.5q2 16 10.5 31t21.5 26t28.5 18t32.5 7q35 0 57.5 -23t17.5 -59t-32.5 -61t-64.5 -25zM491 1120h204l-193 -144h-132z" />
    <glyph glyph-name="udieresisacute" unicode="&#x1d8;" 
d="M521 0h-144l9 66h-2q-10 -14 -24.5 -28t-34 -25t-43.5 -18t-51 -7q-57 0 -90 17.5t-48 48.5t-16 73t6 91l38 268h150l-34 -238q-3 -21 -5 -43.5t3 -41.5t19 -31t43 -12t48.5 10.5t31.5 28t18.5 39.5t9.5 46l34 242h150zM269 537q-35 0 -55.5 25.5t-15.5 60.5
q2 16 10.5 31t21.5 26t28.5 18t32.5 7q35 0 57.5 -23t17.5 -59t-32.5 -61t-64.5 -25zM477 537q-35 0 -55.5 25.5t-15.5 60.5q2 16 10.5 31t21.5 26t28.5 18t32.5 7q35 0 57.5 -23t17.5 -59t-32.5 -61t-64.5 -25zM373 898h204l-193 -144h-132z" />
    <glyph glyph-name="Udieresiscaron" unicode="&#x1d9;" horiz-adv-x="741" 
d="M707 273q-9 -63 -35.5 -116t-69.5 -92t-102 -61t-132 -22q-74 0 -127 22t-85 61t-43.5 92t-2.5 116l61 435h156l-60 -429q-5 -33 1.5 -61t23 -48.5t41 -32t55.5 -11.5t58.5 11.5t49.5 32t36.5 48.5t19.5 61l60 429h156zM387 758q-35 0 -55.5 25.5t-15.5 60.5
q2 16 10.5 31t21.5 26t28.5 18t32.5 7q35 0 57.5 -23t17.5 -59t-32.5 -61t-64.5 -25zM595 758q-35 0 -55.5 25.5t-15.5 60.5q2 16 10.5 31t21.5 26t28.5 18t32.5 7q35 0 57.5 -23t17.5 -59t-32.5 -61t-64.5 -25zM471 1120l52 -78l73 78h135l-139 -144h-163l-96 144h138z" />
    <glyph glyph-name="udieresiscaron" unicode="&#x1da;" 
d="M521 0h-144l9 66h-2q-10 -14 -24.5 -28t-34 -25t-43.5 -18t-51 -7q-57 0 -90 17.5t-48 48.5t-16 73t6 91l38 268h150l-34 -238q-3 -21 -5 -43.5t3 -41.5t19 -31t43 -12t48.5 10.5t31.5 28t18.5 39.5t9.5 46l34 242h150zM269 537q-35 0 -55.5 25.5t-15.5 60.5
q2 16 10.5 31t21.5 26t28.5 18t32.5 7q35 0 57.5 -23t17.5 -59t-32.5 -61t-64.5 -25zM477 537q-35 0 -55.5 25.5t-15.5 60.5q2 16 10.5 31t21.5 26t28.5 18t32.5 7q35 0 57.5 -23t17.5 -59t-32.5 -61t-64.5 -25zM353 898l52 -78l73 78h135l-139 -144h-163l-96 144h138z" />
    <glyph glyph-name="Udieresisgrave" unicode="&#x1db;" horiz-adv-x="741" 
d="M707 273q-9 -63 -35.5 -116t-69.5 -92t-102 -61t-132 -22q-74 0 -127 22t-85 61t-43.5 92t-2.5 116l61 435h156l-60 -429q-5 -33 1.5 -61t23 -48.5t41 -32t55.5 -11.5t58.5 11.5t49.5 32t36.5 48.5t19.5 61l60 429h156zM387 758q-35 0 -55.5 25.5t-15.5 60.5
q2 16 10.5 31t21.5 26t28.5 18t32.5 7q35 0 57.5 -23t17.5 -59t-32.5 -61t-64.5 -25zM595 758q-35 0 -55.5 25.5t-15.5 60.5q2 16 10.5 31t21.5 26t28.5 18t32.5 7q35 0 57.5 -23t17.5 -59t-32.5 -61t-64.5 -25zM675 976h-132l-153 144h204z" />
    <glyph glyph-name="udieresisgrave" unicode="&#x1dc;" 
d="M521 0h-144l9 66h-2q-10 -14 -24.5 -28t-34 -25t-43.5 -18t-51 -7q-57 0 -90 17.5t-48 48.5t-16 73t6 91l38 268h150l-34 -238q-3 -21 -5 -43.5t3 -41.5t19 -31t43 -12t48.5 10.5t31.5 28t18.5 39.5t9.5 46l34 242h150zM269 537q-35 0 -55.5 25.5t-15.5 60.5
q2 16 10.5 31t21.5 26t28.5 18t32.5 7q35 0 57.5 -23t17.5 -59t-32.5 -61t-64.5 -25zM477 537q-35 0 -55.5 25.5t-15.5 60.5q2 16 10.5 31t21.5 26t28.5 18t32.5 7q35 0 57.5 -23t17.5 -59t-32.5 -61t-64.5 -25zM557 754h-132l-153 144h204z" />
    <glyph glyph-name="Adieresismacron" unicode="&#x1de;" horiz-adv-x="741" 
d="M404 708h129l209 -708h-176l-40 150h-275l-80 -150h-172zM435 502l-117 -220h173zM322 758q-35 0 -55.5 25.5t-15.5 60.5q2 16 10.5 31t21.5 26t28.5 18t32.5 7q35 0 57.5 -23t17.5 -59t-32.5 -61t-64.5 -25zM530 758q-35 0 -55.5 25.5t-15.5 60.5q2 16 10.5 31t21.5 26
t28.5 18t32.5 7q35 0 57.5 -23t17.5 -59t-32.5 -61t-64.5 -25zM628 976h-340l13 96h340z" />
    <glyph glyph-name="adieresismacron" unicode="&#x1df;" horiz-adv-x="537" 
d="M366 61h-2q-30 -39 -74 -56t-90 -17q-34 0 -64 9.5t-51.5 28.5t-31.5 47t-5 65q9 63 47.5 97.5t91 51t110 19.5t104.5 3q5 40 -20 63.5t-64 23.5q-37 0 -69.5 -15.5t-60.5 -42.5l-68 82q47 39 105.5 58.5t118.5 19.5q66 0 106.5 -16.5t61.5 -48.5t24.5 -78.5t-5.5 -107.5
l-34 -247h-138zM350 213q-17 0 -42.5 -1.5t-50 -8.5t-43 -21t-21.5 -39q-2 -14 3 -23.5t14 -16.5t21.5 -10t24.5 -3q22 0 43.5 6t39 17t29.5 28t15 40l4 32h-37zM229 549q-35 0 -55.5 25.5t-15.5 60.5q2 16 10.5 31t21.5 26t28.5 18t32.5 7q35 0 57.5 -23t17.5 -59
t-32.5 -61t-64.5 -25zM437 549q-35 0 -55.5 25.5t-15.5 60.5q2 16 10.5 31t21.5 26t28.5 18t32.5 7q35 0 57.5 -23t17.5 -59t-32.5 -61t-64.5 -25zM534 766h-340l13 96h340z" />
    <glyph glyph-name="Adotmacron" unicode="&#x1e0;" horiz-adv-x="741" 
d="M404 708h129l209 -708h-176l-40 150h-275l-80 -150h-172zM435 502l-117 -220h173zM426 758q-35 0 -55.5 25.5t-15.5 60.5q2 16 10.5 31t21.5 26t28.5 18t32.5 7q35 0 57.5 -23t17.5 -59t-32.5 -61t-64.5 -25zM628 976h-340l13 96h340z" />
    <glyph glyph-name="adotmacron" unicode="&#x1e1;" horiz-adv-x="537" 
d="M366 61h-2q-30 -39 -74 -56t-90 -17q-34 0 -64 9.5t-51.5 28.5t-31.5 47t-5 65q9 63 47.5 97.5t91 51t110 19.5t104.5 3q5 40 -20 63.5t-64 23.5q-37 0 -69.5 -15.5t-60.5 -42.5l-68 82q47 39 105.5 58.5t118.5 19.5q66 0 106.5 -16.5t61.5 -48.5t24.5 -78.5t-5.5 -107.5
l-34 -247h-138zM350 213q-17 0 -42.5 -1.5t-50 -8.5t-43 -21t-21.5 -39q-2 -14 3 -23.5t14 -16.5t21.5 -10t24.5 -3q22 0 43.5 6t39 17t29.5 28t15 40l4 32h-37zM333 549q-35 0 -55.5 25.5t-15.5 60.5q2 16 10.5 31t21.5 26t28.5 18t32.5 7q35 0 57.5 -23t17.5 -59
t-32.5 -61t-64.5 -25zM534 766h-340l13 96h340z" />
    <glyph glyph-name="AEmacron" unicode="&#x1e2;" horiz-adv-x="1037" 
d="M555 150h-263l-116 -150h-191l548 708h538l-20 -144h-282l-19 -132h258l-20 -144h-258l-20 -144h294l-20 -144h-450zM613 564h-17l-219 -282h196zM754 758h-340l13 96h340z" />
    <glyph glyph-name="aemacron" unicode="&#x1e3;" horiz-adv-x="852" 
d="M119 420q47 39 105.5 58.5t118.5 19.5q43 0 83 -14t67 -45q35 29 79 44t92 15q52 0 92 -18t65 -51.5t34.5 -80.5t1.5 -105l-7 -47h-348q3 -43 29.5 -68.5t70.5 -25.5q37 0 64.5 16.5t50.5 42.5l94 -77q-42 -46 -100.5 -71t-117.5 -25q-60 0 -109 17t-74 62
q-38 -44 -92 -61.5t-118 -17.5q-34 0 -64 9.5t-51.5 28.5t-31.5 47t-5 65q8 58 44.5 90.5t85 48t101 18.5t93.5 3h18q7 44 -12.5 71t-60.5 27q-37 0 -69.5 -15.5t-60.5 -42.5zM192 139q-2 -17 4 -26.5t16.5 -14.5t24 -6.5t25.5 -1.5q54 0 80.5 29t33.5 77h-18q-17 0 -44 -1
t-53 -6t-46 -17t-23 -33zM714 298q6 38 -16 65t-63 27q-25 0 -45 -8t-35 -20.5t-25 -29t-14 -34.5h198zM667 549h-340l13 96h340z" />
    <glyph glyph-name="Gcaron" unicode="&#x1e6;" horiz-adv-x="778" 
d="M720 50q-75 -36 -152 -52t-155 -16q-83 0 -149.5 26t-110.5 74.5t-63 117.5t-7 154t50.5 154t96 117.5t131.5 74.5t157 26q85 0 153.5 -20.5t115.5 -70.5l-127 -120q-27 33 -65 50t-98 17q-50 0 -93 -17t-76 -47.5t-54.5 -72.5t-28.5 -91q-7 -50 3 -91.5t34.5 -72
t62.5 -47.5t88 -17q51 0 90 11.5t62 23.5l16 115h-127l21 144h277zM436 920l52 -78l73 78h135l-139 -144h-163l-96 144h138z" />
    <glyph glyph-name="gcaron" unicode="&#x1e7;" horiz-adv-x="630" 
d="M568 41q-19 -138 -98.5 -209.5t-221.5 -71.5q-65 0 -126 14.5t-108 56.5l100 124q31 -29 67 -46t82 -17q69 0 106 33.5t45 85.5l7 47h-2q-31 -35 -71.5 -49.5t-74.5 -14.5q-54 0 -95.5 18.5t-68.5 52t-37.5 79.5t-2.5 101q7 48 28.5 94t55 81t77.5 56.5t96 21.5
q32 0 58 -7t45.5 -18t32.5 -24.5t20 -26.5h2l9 64h138zM219 246q-3 -24 3 -45.5t19.5 -38t34 -26.5t46.5 -10q25 0 48.5 10t42 26.5t31 38t15.5 45.5t-3 45.5t-19.5 38t-34.5 26.5t-46 10q-26 0 -49 -10t-41.5 -26.5t-31 -38t-15.5 -45.5zM330 693l52 -78l73 78h135
l-139 -144h-163l-96 144h138z" />
    <glyph glyph-name="Kcaron" unicode="&#x1e8;" horiz-adv-x="722" 
d="M177 708h156l-41 -294l316 294h204l-361 -329l289 -379h-218l-241 336l-47 -336h-156zM450 902l52 -78l73 78h135l-139 -144h-163l-96 144h138z" />
    <glyph glyph-name="kcaron" unicode="&#x1e9;" horiz-adv-x="556" 
d="M159 756h150l-65 -462l193 192h184l-224 -219l161 -267h-189l-130 246h-2l-34 -246h-150zM346 950l52 -78l73 78h135l-139 -144h-163l-96 144h138z" />
    <glyph glyph-name="Oogonek" unicode="&#x1ea;" horiz-adv-x="832" 
d="M83 354q12 85 50.5 154t96 117.5t131.5 74.5t157 26t149 -26t110 -74.5t63 -117.5t7 -154t-50 -154t-96 -117.5t-131.5 -74.5t-156.5 -26t-149.5 26t-110.5 74.5t-63 117.5t-7 154zM245 354q-7 -50 3 -91.5t34.5 -72t62.5 -47.5t88 -17t93 17t76 47.5t54.5 72t28.5 91.5
q7 49 -2.5 91t-34.5 72.5t-63 47.5t-88 17t-93 -17t-76 -47.5t-54.5 -72.5t-28.5 -91zM500 -227q-28 -19 -55.5 -30.5t-59.5 -11.5q-21 0 -38.5 6t-30.5 18t-19 29.5t-3 39.5t16 44.5t31.5 44t39.5 39.5t39 31h68q-14 -11 -30.5 -26.5t-31.5 -34t-26 -37.5t-14 -36
q-2 -17 8 -31.5t28 -14.5q14 0 29.5 7t27.5 16z" />
    <glyph glyph-name="oogonek" unicode="&#x1eb;" horiz-adv-x="610" 
d="M69 243q8 58 35.5 105t68.5 80.5t93 51.5t108 18t103 -18t79 -51.5t46.5 -80.5t6.5 -105t-36 -105t-69 -80.5t-93 -51.5t-108 -18t-103 18t-78.5 51.5t-46 80.5t-6.5 105zM219 243q-8 -55 18.5 -89t83.5 -34t93.5 34t44.5 89t-19 89t-84 34t-93 -34t-44 -89zM391 -221
q-28 -19 -55.5 -30.5t-59.5 -11.5q-21 0 -38.5 6t-30.5 18t-19 29.5t-3 39.5t16 44.5t31.5 44t39.5 39.5t39 31h68q-14 -11 -30.5 -26.5t-31.5 -34t-26 -37.5t-14 -36q-2 -17 8 -31.5t28 -14.5q14 0 29.5 7t27.5 16z" />
    <glyph glyph-name="Oogonekmacron" unicode="&#x1ec;" horiz-adv-x="832" 
d="M83 354q12 85 50.5 154t96 117.5t131.5 74.5t157 26t149 -26t110 -74.5t63 -117.5t7 -154t-50 -154t-96 -117.5t-131.5 -74.5t-156.5 -26t-149.5 26t-110.5 74.5t-63 117.5t-7 154zM245 354q-7 -50 3 -91.5t34.5 -72t62.5 -47.5t88 -17t93 17t76 47.5t54.5 72t28.5 91.5
q7 49 -2.5 91t-34.5 72.5t-63 47.5t-88 17t-93 -17t-76 -47.5t-54.5 -72.5t-28.5 -91zM500 -227q-28 -19 -55.5 -30.5t-59.5 -11.5q-21 0 -38.5 6t-30.5 18t-19 29.5t-3 39.5t16 44.5t31.5 44t39.5 39.5t39 31h68q-14 -11 -30.5 -26.5t-31.5 -34t-26 -37.5t-14 -36
q-2 -17 8 -31.5t28 -14.5q14 0 29.5 7t27.5 16zM694 776h-340l13 96h340z" />
    <glyph glyph-name="oogonekmacron" unicode="&#x1ed;" horiz-adv-x="610" 
d="M69 243q8 58 35.5 105t68.5 80.5t93 51.5t108 18t103 -18t79 -51.5t46.5 -80.5t6.5 -105t-36 -105t-69 -80.5t-93 -51.5t-108 -18t-103 18t-78.5 51.5t-46 80.5t-6.5 105zM219 243q-8 -55 18.5 -89t83.5 -34t93.5 34t44.5 89t-19 89t-84 34t-93 -34t-44 -89zM391 -221
q-28 -19 -55.5 -30.5t-59.5 -11.5q-21 0 -38.5 6t-30.5 18t-19 29.5t-3 39.5t16 44.5t31.5 44t39.5 39.5t39 31h68q-14 -11 -30.5 -26.5t-31.5 -34t-26 -37.5t-14 -36q-2 -17 8 -31.5t28 -14.5q14 0 29.5 7t27.5 16zM552 549h-340l13 96h340z" />
    <glyph glyph-name="jcaron" unicode="&#x1f0;" horiz-adv-x="260" 
d="M199 -36q-6 -47 -20.5 -84.5t-39 -64t-60.5 -41t-87 -14.5q-17 0 -34.5 1.5t-34.5 6.5l27 133q16 -9 37 -9q19 0 31 10t19 25t10.5 32t5.5 31l70 496h150zM106 681l52 -78l73 78h135l-139 -144h-163l-96 144h138z" />
    <glyph glyph-name="DZ" unicode="&#x1f1;" horiz-adv-x="1389" 
d="M171 708h234q85 0 158.5 -19t125 -61.5t75 -110.5t10.5 -165q-12 -86 -53.5 -151.5t-102.5 -110t-136.5 -67.5t-154.5 -23h-255zM248 144h81q54 0 102 11t85.5 36.5t62.5 67t34 101.5q7 52 -6.5 90.5t-43.5 63.5t-72.5 37.5t-91.5 12.5h-92zM814 144l419 426h-346l19 138
h535l-19 -138l-412 -426h364l-20 -144h-560z" />
    <glyph glyph-name="Dz" unicode="&#x1f2;" horiz-adv-x="1259" 
d="M171 708h234q85 0 158.5 -19t125 -61.5t75 -110.5t10.5 -165q-12 -86 -53.5 -151.5t-102.5 -110t-136.5 -67.5t-154.5 -23h-255zM248 144h81q54 0 102 11t85.5 36.5t62.5 67t34 101.5q7 52 -6.5 90.5t-43.5 63.5t-72.5 37.5t-91.5 12.5h-92zM814 150l282 216h-246l17 120
h420l-20 -144l-296 -222h270l-16 -120h-432z" />
    <glyph glyph-name="dz" unicode="&#x1f3;" horiz-adv-x="1130" 
d="M563 0h-138l8 64h-2q-10 -13 -26.5 -26.5t-37.5 -24.5t-45.5 -18t-49.5 -7q-54 0 -95.5 18.5t-68.5 52t-37.5 79.5t-2.5 101q7 51 29 97.5t55.5 82.5t77.5 57.5t96 21.5q47 0 86 -14.5t59 -49.5h2l46 322h150zM459 243q8 55 -19 89t-84 34t-93 -34t-44 -89t18.5 -89
t83.5 -34t93.5 34t44.5 89zM685 150l282 216h-246l17 120h420l-20 -144l-296 -222h270l-16 -120h-432z" />
    <glyph glyph-name="Gacute" unicode="&#x1f4;" horiz-adv-x="778" 
d="M720 50q-75 -36 -152 -52t-155 -16q-83 0 -149.5 26t-110.5 74.5t-63 117.5t-7 154t50.5 154t96 117.5t131.5 74.5t157 26q85 0 153.5 -20.5t115.5 -70.5l-127 -120q-27 33 -65 50t-98 17q-50 0 -93 -17t-76 -47.5t-54.5 -72.5t-28.5 -91q-7 -50 3 -91.5t34.5 -72
t62.5 -47.5t88 -17q51 0 90 11.5t62 23.5l16 115h-127l21 144h277zM456 920h204l-193 -144h-132z" />
    <glyph glyph-name="gacute" unicode="&#x1f5;" horiz-adv-x="630" 
d="M568 41q-19 -138 -98.5 -209.5t-221.5 -71.5q-65 0 -126 14.5t-108 56.5l100 124q31 -29 67 -46t82 -17q69 0 106 33.5t45 85.5l7 47h-2q-31 -35 -71.5 -49.5t-74.5 -14.5q-54 0 -95.5 18.5t-68.5 52t-37.5 79.5t-2.5 101q7 48 28.5 94t55 81t77.5 56.5t96 21.5
q32 0 58 -7t45.5 -18t32.5 -24.5t20 -26.5h2l9 64h138zM219 246q-3 -24 3 -45.5t19.5 -38t34 -26.5t46.5 -10q25 0 48.5 10t42 26.5t31 38t15.5 45.5t-3 45.5t-19.5 38t-34.5 26.5t-46 10q-26 0 -49 -10t-41.5 -26.5t-31 -38t-15.5 -45.5zM350 693h204l-193 -144h-132z" />
    <glyph glyph-name="Ngrave" unicode="&#x1f8;" horiz-adv-x="815" 
d="M171 708h212l232 -492h2l69 492h156l-99 -708h-204l-239 504h-2l-70 -504h-156zM666 758h-132l-153 144h204z" />
    <glyph glyph-name="ngrave" unicode="&#x1f9;" 
d="M121 486h144l-9 -66h2q9 14 24 28t34 25t43 18t51 7q57 0 90 -17.5t48 -48.5t16 -73t-6 -91l-37 -268h-150l33 238q3 21 5 43.5t-3 41.5t-19 31t-43 12t-48.5 -10.5t-31.5 -28t-18 -39.5t-9 -46l-34 -242h-150zM504 549h-132l-153 144h204z" />
    <glyph glyph-name="Aringacute" unicode="&#x1fa;" horiz-adv-x="741" 
d="M404 708h129l209 -708h-176l-40 150h-275l-80 -150h-172zM435 502l-117 -220h173zM426 758q-23 0 -42 9t-32 24t-18.5 35t-2.5 43t14.5 43t28.5 35t38.5 24t44.5 9t42 -9t32 -24t19 -35t3 -43t-15 -43t-29 -35t-38.5 -24t-44.5 -9zM391 869q-3 -21 10 -36t34 -15t38 15
t20 36t-10 36t-34 15t-38 -15t-20 -36zM433 1174h204l-193 -144h-132z" />
    <glyph glyph-name="aringacute" unicode="&#x1fb;" horiz-adv-x="537" 
d="M366 61h-2q-30 -39 -74 -56t-90 -17q-34 0 -64 9.5t-51.5 28.5t-31.5 47t-5 65q9 63 47.5 97.5t91 51t110 19.5t104.5 3q5 40 -20 63.5t-64 23.5q-37 0 -69.5 -15.5t-60.5 -42.5l-68 82q47 39 105.5 58.5t118.5 19.5q66 0 106.5 -16.5t61.5 -48.5t24.5 -78.5t-5.5 -107.5
l-34 -247h-138zM350 213q-17 0 -42.5 -1.5t-50 -8.5t-43 -21t-21.5 -39q-2 -14 3 -23.5t14 -16.5t21.5 -10t24.5 -3q22 0 43.5 6t39 17t29.5 28t15 40l4 32h-37zM333 548q-23 0 -42 9t-32 24t-18.5 35t-2.5 43t14.5 43t28.5 35t38.5 24t44.5 9t42 -9t32 -24t19 -35t3 -43
t-15 -43t-29 -35t-38.5 -24t-44.5 -9zM298 659q-3 -21 10 -36t34 -15t38 15t20 36t-10 36t-34 15t-38 -15t-20 -36zM339 964h204l-193 -144h-132z" />
    <glyph glyph-name="AEacute" unicode="&#x1fc;" horiz-adv-x="1037" 
d="M555 150h-263l-116 -150h-191l548 708h538l-20 -144h-282l-19 -132h258l-20 -144h-258l-20 -144h294l-20 -144h-450zM613 564h-17l-219 -282h196zM553 902h204l-193 -144h-132z" />
    <glyph glyph-name="aeacute" unicode="&#x1fd;" horiz-adv-x="852" 
d="M119 420q47 39 105.5 58.5t118.5 19.5q43 0 83 -14t67 -45q35 29 79 44t92 15q52 0 92 -18t65 -51.5t34.5 -80.5t1.5 -105l-7 -47h-348q3 -43 29.5 -68.5t70.5 -25.5q37 0 64.5 16.5t50.5 42.5l94 -77q-42 -46 -100.5 -71t-117.5 -25q-60 0 -109 17t-74 62
q-38 -44 -92 -61.5t-118 -17.5q-34 0 -64 9.5t-51.5 28.5t-31.5 47t-5 65q8 58 44.5 90.5t85 48t101 18.5t93.5 3h18q7 44 -12.5 71t-60.5 27q-37 0 -69.5 -15.5t-60.5 -42.5zM192 139q-2 -17 4 -26.5t16.5 -14.5t24 -6.5t25.5 -1.5q54 0 80.5 29t33.5 77h-18q-17 0 -44 -1
t-53 -6t-46 -17t-23 -33zM714 298q6 38 -16 65t-63 27q-25 0 -45 -8t-35 -20.5t-25 -29t-14 -34.5h198zM466 693h204l-193 -144h-132z" />
    <glyph glyph-name="Oslashacute" unicode="&#x1fe;" horiz-adv-x="832" 
d="M140 99q-38 48 -53 112.5t-4 142.5q12 85 50.5 154t96 117.5t131.5 74.5t157 26q130 0 218 -64l106 100l48 -49l-104 -98q40 -48 56 -114t5 -147q-12 -85 -50 -154t-96 -117.5t-131.5 -74.5t-156.5 -26q-69 0 -125.5 18t-97.5 50l-108 -101l-49 48zM616 548
q-48 34 -119 34q-50 0 -93 -17t-76 -47.5t-54.5 -72.5t-28.5 -91q-11 -79 20 -137zM310 164q47 -38 123 -38q50 0 93 17t76 47.5t54.5 72t28.5 91.5q6 42 -0.5 78.5t-23.5 64.5zM493 956h204l-193 -144h-132z" />
    <glyph glyph-name="oslashacute" unicode="&#x1ff;" horiz-adv-x="610" 
d="M106 76q-24 32 -34.5 74t-2.5 93q8 58 35.5 105t68.5 80.5t93 51.5t108 18q48 0 88 -13t71 -36l76 67l41 -45l-76 -66q23 -32 32.5 -73t2.5 -89q-8 -58 -36 -105t-69 -80.5t-93 -51.5t-108 -18q-90 0 -153 46l-83 -73l-41 45zM419 350q-26 16 -63 16q-57 0 -93 -34
t-44 -89q-6 -36 6 -63zM264 134q25 -14 57 -14q57 0 93.5 34t44.5 89q4 29 -4 57zM352 710h204l-193 -144h-132z" />
    <glyph glyph-name="Adblgrave" unicode="&#x200;" horiz-adv-x="741" 
d="M404 708h129l209 -708h-176l-40 150h-275l-80 -150h-172zM435 502l-117 -220h173zM637 775h-126l-144 142h193zM417 772h-124l-146 142h194z" />
    <glyph glyph-name="adblgrave" unicode="&#x201;" horiz-adv-x="537" 
d="M366 61h-2q-30 -39 -74 -56t-90 -17q-34 0 -64 9.5t-51.5 28.5t-31.5 47t-5 65q9 63 47.5 97.5t91 51t110 19.5t104.5 3q5 40 -20 63.5t-64 23.5q-37 0 -69.5 -15.5t-60.5 -42.5l-68 82q47 39 105.5 58.5t118.5 19.5q66 0 106.5 -16.5t61.5 -48.5t24.5 -78.5t-5.5 -107.5
l-34 -247h-138zM350 213q-17 0 -42.5 -1.5t-50 -8.5t-43 -21t-21.5 -39q-2 -14 3 -23.5t14 -16.5t21.5 -10t24.5 -3q22 0 43.5 6t39 17t29.5 28t15 40l4 32h-37zM545 566h-126l-144 142h193zM325 563h-124l-146 142h194z" />
    <glyph glyph-name="Ainvertedbreve" unicode="&#x202;" horiz-adv-x="741" 
d="M404 708h129l209 -708h-176l-40 150h-275l-80 -150h-172zM435 502l-117 -220h173zM334 902q1 -15 10.5 -24t23 -14.5t30 -7.5t33.5 -2q39 0 67.5 7.5t44.5 40.5h79q-9 -38 -29 -65.5t-47 -45t-59.5 -25.5t-68.5 -8t-67 7.5t-54 25t-34.5 45t-8.5 66.5h80z" />
    <glyph glyph-name="ainvertedbreve" unicode="&#x203;" horiz-adv-x="537" 
d="M366 61h-2q-30 -39 -74 -56t-90 -17q-34 0 -64 9.5t-51.5 28.5t-31.5 47t-5 65q9 63 47.5 97.5t91 51t110 19.5t104.5 3q5 40 -20 63.5t-64 23.5q-37 0 -69.5 -15.5t-60.5 -42.5l-68 82q47 39 105.5 58.5t118.5 19.5q66 0 106.5 -16.5t61.5 -48.5t24.5 -78.5t-5.5 -107.5
l-34 -247h-138zM350 213q-17 0 -42.5 -1.5t-50 -8.5t-43 -21t-21.5 -39q-2 -14 3 -23.5t14 -16.5t21.5 -10t24.5 -3q22 0 43.5 6t39 17t29.5 28t15 40l4 32h-37zM241 693q1 -15 10.5 -24t23 -14.5t30 -7.5t33.5 -2q39 0 67.5 7.5t44.5 40.5h79q-9 -38 -29 -65.5t-47 -45
t-59.5 -25.5t-68.5 -8t-67 7.5t-54 25t-34.5 45t-8.5 66.5h80z" />
    <glyph glyph-name="Edblgrave" unicode="&#x204;" horiz-adv-x="630" 
d="M177 708h481l-20 -144h-325l-19 -132h307l-20 -144h-307l-20 -144h343l-20 -144h-499zM634 775h-126l-144 142h193zM414 772h-124l-146 142h194z" />
    <glyph glyph-name="edblgrave" unicode="&#x205;" 
d="M524 84q-42 -46 -100.5 -71t-117.5 -25q-56 0 -103 18t-78.5 51.5t-46 80.5t-6.5 105t35.5 105t68.5 80.5t93 51.5t108 18q52 0 92 -18t65 -51.5t34.5 -80.5t1.5 -105l-7 -47h-348q3 -43 29.5 -68.5t70.5 -25.5q37 0 64.5 16.5t50.5 42.5zM427 298q6 38 -16 65t-63 27
q-25 0 -45 -8t-35 -20.5t-25 -29t-14 -34.5h198zM575 566h-126l-144 142h193zM355 563h-124l-146 142h194z" />
    <glyph glyph-name="Einvertedbreve" unicode="&#x206;" horiz-adv-x="630" 
d="M177 708h481l-20 -144h-325l-19 -132h307l-20 -144h-307l-20 -144h343l-20 -144h-499zM331 902q1 -15 10.5 -24t23 -14.5t30 -7.5t33.5 -2q39 0 67.5 7.5t44.5 40.5h79q-9 -38 -29 -65.5t-47 -45t-59.5 -25.5t-68.5 -8t-67 7.5t-54 25t-34.5 45t-8.5 66.5h80z" />
    <glyph glyph-name="einvertedbreve" unicode="&#x207;" 
d="M524 84q-42 -46 -100.5 -71t-117.5 -25q-56 0 -103 18t-78.5 51.5t-46 80.5t-6.5 105t35.5 105t68.5 80.5t93 51.5t108 18q52 0 92 -18t65 -51.5t34.5 -80.5t1.5 -105l-7 -47h-348q3 -43 29.5 -68.5t70.5 -25.5q37 0 64.5 16.5t50.5 42.5zM427 298q6 38 -16 65t-63 27
q-25 0 -45 -8t-35 -20.5t-25 -29t-14 -34.5h198zM271 693q1 -15 10.5 -24t23 -14.5t30 -7.5t33.5 -2q39 0 67.5 7.5t44.5 40.5h79q-9 -38 -29 -65.5t-47 -45t-59.5 -25.5t-68.5 -8t-67 7.5t-54 25t-34.5 45t-8.5 66.5h80z" />
    <glyph glyph-name="Idblgrave" unicode="&#x208;" horiz-adv-x="296" 
d="M169 708h156l-99 -708h-156zM464 775h-126l-144 142h193zM244 772h-124l-146 142h194z" />
    <glyph glyph-name="idblgrave" unicode="&#x209;" horiz-adv-x="260" 
d="M123 486h150l-68 -486h-150zM416 554h-126l-144 142h193zM196 551h-124l-146 142h194z" />
    <glyph glyph-name="Iinvertedbreve" unicode="&#x20a;" horiz-adv-x="296" 
d="M169 708h156l-99 -708h-156zM161 902q1 -15 10.5 -24t23 -14.5t30 -7.5t33.5 -2q39 0 67.5 7.5t44.5 40.5h79q-9 -38 -29 -65.5t-47 -45t-59.5 -25.5t-68.5 -8t-67 7.5t-54 25t-34.5 45t-8.5 66.5h80z" />
    <glyph glyph-name="iinvertedbreve" unicode="&#x20b;" horiz-adv-x="260" 
d="M123 486h150l-68 -486h-150zM113 681q1 -15 10.5 -24t23 -14.5t30 -7.5t33.5 -2q39 0 67.5 7.5t44.5 40.5h79q-9 -38 -29 -65.5t-47 -45t-59.5 -25.5t-68.5 -8t-67 7.5t-54 25t-34.5 45t-8.5 66.5h80z" />
    <glyph glyph-name="Odblgrave" unicode="&#x20c;" horiz-adv-x="832" 
d="M83 354q12 85 50.5 154t96 117.5t131.5 74.5t157 26t149 -26t110 -74.5t63 -117.5t7 -154t-50 -154t-96 -117.5t-131.5 -74.5t-156.5 -26t-149.5 26t-110.5 74.5t-63 117.5t-7 154zM245 354q-7 -50 3 -91.5t34.5 -72t62.5 -47.5t88 -17t93 17t76 47.5t54.5 72t28.5 91.5
q7 49 -2.5 91t-34.5 72.5t-63 47.5t-88 17t-93 -17t-76 -47.5t-54.5 -72.5t-28.5 -91zM734 793h-126l-144 142h193zM514 790h-124l-146 142h194z" />
    <glyph glyph-name="odblgrave" unicode="&#x20d;" horiz-adv-x="610" 
d="M69 243q8 58 35.5 105t68.5 80.5t93 51.5t108 18t103 -18t79 -51.5t46.5 -80.5t6.5 -105t-36 -105t-69 -80.5t-93 -51.5t-108 -18t-103 18t-78.5 51.5t-46 80.5t-6.5 105zM219 243q-8 -55 18.5 -89t83.5 -34t93.5 34t44.5 89t-19 89t-84 34t-93 -34t-44 -89zM593 566
h-126l-144 142h193zM373 563h-124l-146 142h194z" />
    <glyph glyph-name="Oinvertedbreve" unicode="&#x20e;" horiz-adv-x="832" 
d="M83 354q12 85 50.5 154t96 117.5t131.5 74.5t157 26t149 -26t110 -74.5t63 -117.5t7 -154t-50 -154t-96 -117.5t-131.5 -74.5t-156.5 -26t-149.5 26t-110.5 74.5t-63 117.5t-7 154zM245 354q-7 -50 3 -91.5t34.5 -72t62.5 -47.5t88 -17t93 17t76 47.5t54.5 72t28.5 91.5
q7 49 -2.5 91t-34.5 72.5t-63 47.5t-88 17t-93 -17t-76 -47.5t-54.5 -72.5t-28.5 -91zM430 920q1 -15 10.5 -24t23 -14.5t30 -7.5t33.5 -2q39 0 67.5 7.5t44.5 40.5h79q-9 -38 -29 -65.5t-47 -45t-59.5 -25.5t-68.5 -8t-67 7.5t-54 25t-34.5 45t-8.5 66.5h80z" />
    <glyph glyph-name="oinvertedbreve" unicode="&#x20f;" horiz-adv-x="610" 
d="M69 243q8 58 35.5 105t68.5 80.5t93 51.5t108 18t103 -18t79 -51.5t46.5 -80.5t6.5 -105t-36 -105t-69 -80.5t-93 -51.5t-108 -18t-103 18t-78.5 51.5t-46 80.5t-6.5 105zM219 243q-8 -55 18.5 -89t83.5 -34t93.5 34t44.5 89t-19 89t-84 34t-93 -34t-44 -89zM289 693
q1 -15 10.5 -24t23 -14.5t30 -7.5t33.5 -2q39 0 67.5 7.5t44.5 40.5h79q-9 -38 -29 -65.5t-47 -45t-59.5 -25.5t-68.5 -8t-67 7.5t-54 25t-34.5 45t-8.5 66.5h80z" />
    <glyph glyph-name="Rdblgrave" unicode="&#x210;" horiz-adv-x="648" 
d="M171 708h274q54 0 101 -10.5t80 -35t49 -66t7 -103.5q-11 -75 -57 -127.5t-123 -66.5l138 -299h-187l-109 283h-77l-39 -283h-156zM286 415h92q21 0 44.5 1.5t43.5 9t35 23.5t19 45q4 27 -5 43t-25 24.5t-37.5 11.5t-42.5 3h-102zM648 775h-126l-144 142h193zM428 772
h-124l-146 142h194z" />
    <glyph glyph-name="rdblgrave" unicode="&#x211;" horiz-adv-x="407" 
d="M121 486h150l-11 -78h2q30 45 66 67.5t86 22.5q13 0 26 -1t24 -4l-19 -137q-16 5 -31 7.5t-32 2.5q-43 0 -70 -12t-43 -33.5t-24.5 -51.5t-13.5 -66l-28 -203h-150zM512 566h-126l-144 142h193zM292 563h-124l-146 142h194z" />
    <glyph glyph-name="Rinvertedbreve" unicode="&#x212;" horiz-adv-x="648" 
d="M171 708h274q54 0 101 -10.5t80 -35t49 -66t7 -103.5q-11 -75 -57 -127.5t-123 -66.5l138 -299h-187l-109 283h-77l-39 -283h-156zM286 415h92q21 0 44.5 1.5t43.5 9t35 23.5t19 45q4 27 -5 43t-25 24.5t-37.5 11.5t-42.5 3h-102zM345 902q1 -15 10.5 -24t23 -14.5
t30 -7.5t33.5 -2q39 0 67.5 7.5t44.5 40.5h79q-9 -38 -29 -65.5t-47 -45t-59.5 -25.5t-68.5 -8t-67 7.5t-54 25t-34.5 45t-8.5 66.5h80z" />
    <glyph glyph-name="rinvertedbreve" unicode="&#x213;" horiz-adv-x="407" 
d="M121 486h150l-11 -78h2q30 45 66 67.5t86 22.5q13 0 26 -1t24 -4l-19 -137q-16 5 -31 7.5t-32 2.5q-43 0 -70 -12t-43 -33.5t-24.5 -51.5t-13.5 -66l-28 -203h-150zM208 693q1 -15 10.5 -24t23 -14.5t30 -7.5t33.5 -2q39 0 67.5 7.5t44.5 40.5h79q-9 -38 -29 -65.5
t-47 -45t-59.5 -25.5t-68.5 -8t-67 7.5t-54 25t-34.5 45t-8.5 66.5h80z" />
    <glyph glyph-name="Udblgrave" unicode="&#x214;" horiz-adv-x="741" 
d="M707 273q-9 -63 -35.5 -116t-69.5 -92t-102 -61t-132 -22q-74 0 -127 22t-85 61t-43.5 92t-2.5 116l61 435h156l-60 -429q-5 -33 1.5 -61t23 -48.5t41 -32t55.5 -11.5t58.5 11.5t49.5 32t36.5 48.5t19.5 61l60 429h156zM702 775h-126l-144 142h193zM482 772h-124
l-146 142h194z" />
    <glyph glyph-name="udblgrave" unicode="&#x215;" 
d="M521 0h-144l9 66h-2q-10 -14 -24.5 -28t-34 -25t-43.5 -18t-51 -7q-57 0 -90 17.5t-48 48.5t-16 73t6 91l38 268h150l-34 -238q-3 -21 -5 -43.5t3 -41.5t19 -31t43 -12t48.5 10.5t31.5 28t18.5 39.5t9.5 46l34 242h150zM585 554h-126l-144 142h193zM365 551h-124
l-146 142h194z" />
    <glyph glyph-name="Uinvertedbreve" unicode="&#x216;" horiz-adv-x="741" 
d="M707 273q-9 -63 -35.5 -116t-69.5 -92t-102 -61t-132 -22q-74 0 -127 22t-85 61t-43.5 92t-2.5 116l61 435h156l-60 -429q-5 -33 1.5 -61t23 -48.5t41 -32t55.5 -11.5t58.5 11.5t49.5 32t36.5 48.5t19.5 61l60 429h156zM399 902q1 -15 10.5 -24t23 -14.5t30 -7.5t33.5 -2
q39 0 67.5 7.5t44.5 40.5h79q-9 -38 -29 -65.5t-47 -45t-59.5 -25.5t-68.5 -8t-67 7.5t-54 25t-34.5 45t-8.5 66.5h80z" />
    <glyph glyph-name="uinvertedbreve" unicode="&#x217;" 
d="M521 0h-144l9 66h-2q-10 -14 -24.5 -28t-34 -25t-43.5 -18t-51 -7q-57 0 -90 17.5t-48 48.5t-16 73t6 91l38 268h150l-34 -238q-3 -21 -5 -43.5t3 -41.5t19 -31t43 -12t48.5 10.5t31.5 28t18.5 39.5t9.5 46l34 242h150zM282 681q1 -15 10.5 -24t23 -14.5t30 -7.5t33.5 -2
q39 0 67.5 7.5t44.5 40.5h79q-9 -38 -29 -65.5t-47 -45t-59.5 -25.5t-68.5 -8t-67 7.5t-54 25t-34.5 45t-8.5 66.5h80z" />
    <glyph glyph-name="Hcaron" unicode="&#x21e;" horiz-adv-x="759" 
d="M171 708h156l-37 -264h303l37 264h156l-99 -708h-156l43 306h-303l-43 -306h-156zM434 902l52 -78l73 78h135l-139 -144h-163l-96 144h138z" />
    <glyph glyph-name="hcaron" unicode="&#x21f;" 
d="M309 756l-47 -336h2q7 14 20.5 28t32 25t42.5 18t51 7q57 0 90 -17.5t48 -48.5t16 -73t-6 -91l-37 -268h-150l33 238q3 21 5 43.5t-3 41.5t-19 31t-43 12t-48.5 -10.5t-31.5 -28t-18 -39.5t-9 -46l-34 -242h-150l106 756h150zM318 950l52 -78l73 78h135l-139 -144h-163
l-96 144h138z" />
    <glyph glyph-name="Adotaccent" unicode="&#x226;" horiz-adv-x="741" 
d="M404 708h129l209 -708h-176l-40 150h-275l-80 -150h-172zM435 502l-117 -220h173zM426 758q-35 0 -55.5 25.5t-15.5 60.5q2 16 10.5 31t21.5 26t28.5 18t32.5 7q35 0 57.5 -23t17.5 -59t-32.5 -61t-64.5 -25z" />
    <glyph glyph-name="adotaccent" unicode="&#x227;" horiz-adv-x="537" 
d="M366 61h-2q-30 -39 -74 -56t-90 -17q-34 0 -64 9.5t-51.5 28.5t-31.5 47t-5 65q9 63 47.5 97.5t91 51t110 19.5t104.5 3q5 40 -20 63.5t-64 23.5q-37 0 -69.5 -15.5t-60.5 -42.5l-68 82q47 39 105.5 58.5t118.5 19.5q66 0 106.5 -16.5t61.5 -48.5t24.5 -78.5t-5.5 -107.5
l-34 -247h-138zM350 213q-17 0 -42.5 -1.5t-50 -8.5t-43 -21t-21.5 -39q-2 -14 3 -23.5t14 -16.5t21.5 -10t24.5 -3q22 0 43.5 6t39 17t29.5 28t15 40l4 32h-37zM333 549q-35 0 -55.5 25.5t-15.5 60.5q2 16 10.5 31t21.5 26t28.5 18t32.5 7q35 0 57.5 -23t17.5 -59
t-32.5 -61t-64.5 -25z" />
    <glyph glyph-name="Ecedilla" unicode="&#x228;" horiz-adv-x="630" 
d="M177 708h481l-20 -144h-325l-19 -132h307l-20 -144h-307l-20 -144h343l-20 -144h-499zM322 -60q22 0 44 -2.5t39 -11t26 -25t5 -44.5q-4 -27 -21 -46t-39.5 -30t-47.5 -16t-44 -5q-30 0 -62.5 8.5t-57.5 21.5l32 47q11 -5 29 -11t44 -6q23 0 45.5 6t25.5 26
q2 18 -14.5 26t-31.5 8q-10 0 -18.5 -2t-18.5 -6l-28 29l76 93h67z" />
    <glyph glyph-name="ecedilla" unicode="&#x229;" 
d="M524 84q-42 -46 -100.5 -71t-117.5 -25q-56 0 -103 18t-78.5 51.5t-46 80.5t-6.5 105t35.5 105t68.5 80.5t93 51.5t108 18q52 0 92 -18t65 -51.5t34.5 -80.5t1.5 -105l-7 -47h-348q3 -43 29.5 -68.5t70.5 -25.5q37 0 64.5 16.5t50.5 42.5zM427 298q6 38 -16 65t-63 27
q-25 0 -45 -8t-35 -20.5t-25 -29t-14 -34.5h198zM290 -71q22 0 44 -2.5t39 -11t26 -25t5 -44.5q-4 -27 -21 -46t-39.5 -30t-47.5 -16t-44 -5q-30 0 -62.5 8.5t-57.5 21.5l32 47q11 -5 29 -11t44 -6q23 0 45.5 6t25.5 26q2 18 -14.5 26t-31.5 8q-10 0 -18.5 -2t-18.5 -6
l-28 29l76 93h67z" />
    <glyph glyph-name="Odieresismacron" unicode="&#x22a;" horiz-adv-x="832" 
d="M83 354q12 85 50.5 154t96 117.5t131.5 74.5t157 26t149 -26t110 -74.5t63 -117.5t7 -154t-50 -154t-96 -117.5t-131.5 -74.5t-156.5 -26t-149.5 26t-110.5 74.5t-63 117.5t-7 154zM245 354q-7 -50 3 -91.5t34.5 -72t62.5 -47.5t88 -17t93 17t76 47.5t54.5 72t28.5 91.5
q7 49 -2.5 91t-34.5 72.5t-63 47.5t-88 17t-93 -17t-76 -47.5t-54.5 -72.5t-28.5 -91zM418 776q-35 0 -55.5 25.5t-15.5 60.5q2 16 10.5 31t21.5 26t28.5 18t32.5 7q35 0 57.5 -23t17.5 -59t-32.5 -61t-64.5 -25zM626 776q-35 0 -55.5 25.5t-15.5 60.5q2 16 10.5 31t21.5 26
t28.5 18t32.5 7q35 0 57.5 -23t17.5 -59t-32.5 -61t-64.5 -25zM723 994h-340l13 96h340z" />
    <glyph glyph-name="odieresismacron" unicode="&#x22b;" horiz-adv-x="610" 
d="M69 243q8 58 35.5 105t68.5 80.5t93 51.5t108 18t103 -18t79 -51.5t46.5 -80.5t6.5 -105t-36 -105t-69 -80.5t-93 -51.5t-108 -18t-103 18t-78.5 51.5t-46 80.5t-6.5 105zM219 243q-8 -55 18.5 -89t83.5 -34t93.5 34t44.5 89t-19 89t-84 34t-93 -34t-44 -89zM277 549
q-35 0 -55.5 25.5t-15.5 60.5q2 16 10.5 31t21.5 26t28.5 18t32.5 7q35 0 57.5 -23t17.5 -59t-32.5 -61t-64.5 -25zM485 549q-35 0 -55.5 25.5t-15.5 60.5q2 16 10.5 31t21.5 26t28.5 18t32.5 7q35 0 57.5 -23t17.5 -59t-32.5 -61t-64.5 -25zM582 766h-340l13 96h340z" />
    <glyph glyph-name="Otildemacron" unicode="&#x22c;" horiz-adv-x="832" 
d="M83 354q12 85 50.5 154t96 117.5t131.5 74.5t157 26t149 -26t110 -74.5t63 -117.5t7 -154t-50 -154t-96 -117.5t-131.5 -74.5t-156.5 -26t-149.5 26t-110.5 74.5t-63 117.5t-7 154zM245 354q-7 -50 3 -91.5t34.5 -72t62.5 -47.5t88 -17t93 17t76 47.5t54.5 72t28.5 91.5
q7 49 -2.5 91t-34.5 72.5t-63 47.5t-88 17t-93 -17t-76 -47.5t-54.5 -72.5t-28.5 -91zM327 776q7 25 20.5 50t32 44.5t42 31.5t51.5 12q25 0 44.5 -6t39.5 -15l26 -10t28 -5q17 0 28.5 10.5t20.5 25.5h78q-9 -29 -21.5 -54t-30.5 -43.5t-42 -29.5t-55 -11q-22 0 -40.5 6.5
t-34.5 14.5q-17 8 -31 14.5t-29 6.5q-17 0 -29.5 -14t-18.5 -28h-79zM719 964h-340l13 96h340z" />
    <glyph glyph-name="otildemacron" unicode="&#x22d;" horiz-adv-x="610" 
d="M69 243q8 58 35.5 105t68.5 80.5t93 51.5t108 18t103 -18t79 -51.5t46.5 -80.5t6.5 -105t-36 -105t-69 -80.5t-93 -51.5t-108 -18t-103 18t-78.5 51.5t-46 80.5t-6.5 105zM219 243q-8 -55 18.5 -89t83.5 -34t93.5 34t44.5 89t-19 89t-84 34t-93 -34t-44 -89zM186 549
q7 25 20.5 50t32 44.5t42 31.5t51.5 12q25 0 44.5 -6t39.5 -15l26 -10t28 -5q17 0 28.5 10.5t20.5 25.5h78q-9 -29 -21.5 -54t-30.5 -43.5t-42 -29.5t-55 -11q-22 0 -40.5 6.5t-34.5 14.5q-17 8 -31 14.5t-29 6.5q-17 0 -29.5 -14t-18.5 -28h-79zM578 736h-340l13 96h340z
" />
    <glyph glyph-name="Odotaccent" unicode="&#x22e;" horiz-adv-x="832" 
d="M83 354q12 85 50.5 154t96 117.5t131.5 74.5t157 26t149 -26t110 -74.5t63 -117.5t7 -154t-50 -154t-96 -117.5t-131.5 -74.5t-156.5 -26t-149.5 26t-110.5 74.5t-63 117.5t-7 154zM245 354q-7 -50 3 -91.5t34.5 -72t62.5 -47.5t88 -17t93 17t76 47.5t54.5 72t28.5 91.5
q7 49 -2.5 91t-34.5 72.5t-63 47.5t-88 17t-93 -17t-76 -47.5t-54.5 -72.5t-28.5 -91zM522 776q-35 0 -55.5 25.5t-15.5 60.5q2 16 10.5 31t21.5 26t28.5 18t32.5 7q35 0 57.5 -23t17.5 -59t-32.5 -61t-64.5 -25z" />
    <glyph glyph-name="odotaccent" unicode="&#x22f;" horiz-adv-x="610" 
d="M69 243q8 58 35.5 105t68.5 80.5t93 51.5t108 18t103 -18t79 -51.5t46.5 -80.5t6.5 -105t-36 -105t-69 -80.5t-93 -51.5t-108 -18t-103 18t-78.5 51.5t-46 80.5t-6.5 105zM219 243q-8 -55 18.5 -89t83.5 -34t93.5 34t44.5 89t-19 89t-84 34t-93 -34t-44 -89zM381 549
q-35 0 -55.5 25.5t-15.5 60.5q2 16 10.5 31t21.5 26t28.5 18t32.5 7q35 0 57.5 -23t17.5 -59t-32.5 -61t-64.5 -25z" />
    <glyph glyph-name="Odotaccentmacron" unicode="&#x230;" horiz-adv-x="832" 
d="M83 354q12 85 50.5 154t96 117.5t131.5 74.5t157 26t149 -26t110 -74.5t63 -117.5t7 -154t-50 -154t-96 -117.5t-131.5 -74.5t-156.5 -26t-149.5 26t-110.5 74.5t-63 117.5t-7 154zM245 354q-7 -50 3 -91.5t34.5 -72t62.5 -47.5t88 -17t93 17t76 47.5t54.5 72t28.5 91.5
q7 49 -2.5 91t-34.5 72.5t-63 47.5t-88 17t-93 -17t-76 -47.5t-54.5 -72.5t-28.5 -91zM522 776q-35 0 -55.5 25.5t-15.5 60.5q2 16 10.5 31t21.5 26t28.5 18t32.5 7q35 0 57.5 -23t17.5 -59t-32.5 -61t-64.5 -25zM723 994h-340l13 96h340z" />
    <glyph glyph-name="odotaccentmacron" unicode="&#x231;" horiz-adv-x="610" 
d="M69 243q8 58 35.5 105t68.5 80.5t93 51.5t108 18t103 -18t79 -51.5t46.5 -80.5t6.5 -105t-36 -105t-69 -80.5t-93 -51.5t-108 -18t-103 18t-78.5 51.5t-46 80.5t-6.5 105zM219 243q-8 -55 18.5 -89t83.5 -34t93.5 34t44.5 89t-19 89t-84 34t-93 -34t-44 -89zM381 549
q-35 0 -55.5 25.5t-15.5 60.5q2 16 10.5 31t21.5 26t28.5 18t32.5 7q35 0 57.5 -23t17.5 -59t-32.5 -61t-64.5 -25zM582 766h-340l13 96h340z" />
    <glyph glyph-name="Ymacron" unicode="&#x232;" horiz-adv-x="648" 
d="M288 302l-209 406h194l113 -265l196 265h185l-323 -406l-42 -302h-156zM649 758h-340l13 96h340z" />
    <glyph glyph-name="ymacron" unicode="&#x233;" horiz-adv-x="556" 
d="M321 -79q-20 -39 -38 -69t-42.5 -50.5t-59 -31t-88.5 -10.5q-58 0 -109 18l37 123q31 -15 67 -15q25 0 42 5.5t29 16t21 25.5t20 35l15 28l-144 490h162l80 -321h2l152 321h154zM531 537h-340l13 96h340z" />
    <glyph glyph-name="commaturnedmod" unicode="&#x2bb;" horiz-adv-x="296" 
d="M228 708h128l-114 -282h-144z" />
    <glyph glyph-name="afii57929" unicode="&#x2bc;" horiz-adv-x="296" 
d="M226 426h-128l114 282h144z" />
    <glyph glyph-name="uni02EE" unicode="&#x2ee;" horiz-adv-x="520" 
d="M445 426h-128l114 282h144zM231 426h-128l114 282h144z" />
    <glyph glyph-name="palochkacyrillic" unicode="&#x4c0;" horiz-adv-x="296" 
d="M169 708h156l-99 -708h-156z" />
    <glyph glyph-name="Aringbelow" unicode="&#x1e00;" horiz-adv-x="741" 
d="M404 708h129l209 -708h-176l-40 150h-275l-80 -150h-172zM435 502l-117 -220h173zM283 -271q-23 0 -42 9t-32 24t-18.5 35t-2.5 43t14.5 43t28.5 35t38.5 24t44.5 9t42 -9t32 -24t19 -35t3 -43t-15 -43t-29 -35t-38.5 -24t-44.5 -9zM248 -160q-3 -21 10 -36t34 -15t38 15
t20 36t-10 36t-34 15t-38 -15t-20 -36z" />
    <glyph glyph-name="aringbelow" unicode="&#x1e01;" horiz-adv-x="537" 
d="M366 61h-2q-30 -39 -74 -56t-90 -17q-34 0 -64 9.5t-51.5 28.5t-31.5 47t-5 65q9 63 47.5 97.5t91 51t110 19.5t104.5 3q5 40 -20 63.5t-64 23.5q-37 0 -69.5 -15.5t-60.5 -42.5l-68 82q47 39 105.5 58.5t118.5 19.5q66 0 106.5 -16.5t61.5 -48.5t24.5 -78.5t-5.5 -107.5
l-34 -247h-138zM350 213q-17 0 -42.5 -1.5t-50 -8.5t-43 -21t-21.5 -39q-2 -14 3 -23.5t14 -16.5t21.5 -10t24.5 -3q22 0 43.5 6t39 17t29.5 28t15 40l4 32h-37zM217 -283q-23 0 -42 9t-32 24t-18.5 35t-2.5 43t14.5 43t28.5 35t38.5 24t44.5 9t42 -9t32 -24t19 -35t3 -43
t-15 -43t-29 -35t-38.5 -24t-44.5 -9zM182 -172q-3 -21 10 -36t34 -15t38 15t20 36t-10 36t-34 15t-38 -15t-20 -36z" />
    <glyph glyph-name="Bdotaccent" unicode="&#x1e02;" horiz-adv-x="648" 
d="M171 708h264q46 0 91.5 -6.5t80 -26t52.5 -54.5t10 -93q-8 -60 -47.5 -99.5t-96.5 -56.5v-2q34 -5 60.5 -19.5t43.5 -37t24 -52.5t2 -64q-8 -56 -37 -93.5t-70 -60.5t-90 -33t-96 -10h-290zM287 425h113q18 0 36 4t33.5 13t26 24t13.5 36q3 22 -4.5 36.5t-21.5 22.5
t-32.5 11.5t-36.5 3.5h-106zM246 132h140q18 0 37.5 4t35.5 14t28 26t15 39q3 25 -7 40.5t-28 23.5t-39.5 11t-40.5 3h-118zM430 758q-35 0 -55.5 25.5t-15.5 60.5q2 16 10.5 31t21.5 26t28.5 18t32.5 7q35 0 57.5 -23t17.5 -59t-32.5 -61t-64.5 -25z" />
    <glyph glyph-name="bdotaccent" unicode="&#x1e03;" horiz-adv-x="630" 
d="M173 756h150l-46 -322h2q31 35 73.5 49.5t89.5 14.5q52 0 90 -21.5t62 -57.5t32.5 -82.5t1.5 -97.5q-8 -55 -31.5 -101t-59.5 -79.5t-82.5 -52t-100.5 -18.5q-26 0 -48 7t-40 18t-31 24.5t-20 26.5h-2l-8 -64h-138zM239 243q-8 -55 18.5 -89t83.5 -34t93.5 34t44.5 89
t-19 89t-84 34t-93 -34t-44 -89zM409 806q-35 0 -55.5 25.5t-15.5 60.5q2 16 10.5 31t21.5 26t28.5 18t32.5 7q35 0 57.5 -23t17.5 -59t-32.5 -61t-64.5 -25z" />
    <glyph glyph-name="Bdotbelow" unicode="&#x1e04;" horiz-adv-x="648" 
d="M171 708h264q46 0 91.5 -6.5t80 -26t52.5 -54.5t10 -93q-8 -60 -47.5 -99.5t-96.5 -56.5v-2q34 -5 60.5 -19.5t43.5 -37t24 -52.5t2 -64q-8 -56 -37 -93.5t-70 -60.5t-90 -33t-96 -10h-290zM287 425h113q18 0 36 4t33.5 13t26 24t13.5 36q3 22 -4.5 36.5t-21.5 22.5
t-32.5 11.5t-36.5 3.5h-106zM246 132h140q18 0 37.5 4t35.5 14t28 26t15 39q3 25 -7 40.5t-28 23.5t-39.5 11t-40.5 3h-118zM293 -217q-35 0 -55.5 25.5t-15.5 60.5q2 16 10.5 31t21.5 26t28.5 18t32.5 7q35 0 57.5 -23t17.5 -59t-32.5 -61t-64.5 -25z" />
    <glyph glyph-name="bdotbelow" unicode="&#x1e05;" horiz-adv-x="630" 
d="M173 756h150l-46 -322h2q31 35 73.5 49.5t89.5 14.5q52 0 90 -21.5t62 -57.5t32.5 -82.5t1.5 -97.5q-8 -55 -31.5 -101t-59.5 -79.5t-82.5 -52t-100.5 -18.5q-26 0 -48 7t-40 18t-31 24.5t-20 26.5h-2l-8 -64h-138zM239 243q-8 -55 18.5 -89t83.5 -34t93.5 34t44.5 89
t-19 89t-84 34t-93 -34t-44 -89zM265 -229q-35 0 -55.5 25.5t-15.5 60.5q2 16 10.5 31t21.5 26t28.5 18t32.5 7q35 0 57.5 -23t17.5 -59t-32.5 -61t-64.5 -25z" />
    <glyph glyph-name="Blinebelow" unicode="&#x1e06;" horiz-adv-x="648" 
d="M171 708h264q46 0 91.5 -6.5t80 -26t52.5 -54.5t10 -93q-8 -60 -47.5 -99.5t-96.5 -56.5v-2q34 -5 60.5 -19.5t43.5 -37t24 -52.5t2 -64q-8 -56 -37 -93.5t-70 -60.5t-90 -33t-96 -10h-290zM287 425h113q18 0 36 4t33.5 13t26 24t13.5 36q3 22 -4.5 36.5t-21.5 22.5
t-32.5 11.5t-36.5 3.5h-106zM246 132h140q18 0 37.5 4t35.5 14t28 26t15 39q3 25 -7 40.5t-28 23.5t-39.5 11t-40.5 3h-118zM475 -145h-340l13 96h340z" />
    <glyph glyph-name="blinebelow" unicode="&#x1e07;" horiz-adv-x="630" 
d="M173 756h150l-46 -322h2q31 35 73.5 49.5t89.5 14.5q52 0 90 -21.5t62 -57.5t32.5 -82.5t1.5 -97.5q-8 -55 -31.5 -101t-59.5 -79.5t-82.5 -52t-100.5 -18.5q-26 0 -48 7t-40 18t-31 24.5t-20 26.5h-2l-8 -64h-138zM239 243q-8 -55 18.5 -89t83.5 -34t93.5 34t44.5 89
t-19 89t-84 34t-93 -34t-44 -89zM446 -157h-340l13 96h340z" />
    <glyph glyph-name="Ccedillaacute" unicode="&#x1e08;" horiz-adv-x="685" 
d="M608 524q-20 28 -51 43t-75 15t-84 -17t-71.5 -47.5t-53 -72.5t-28.5 -91q-7 -50 2.5 -91.5t32 -72t57 -47.5t76.5 -17q48 0 88 20t69 56l116 -97q-54 -63 -127 -93t-146 -30h-9.5t-9.5 1l-35 -43q22 0 44 -2.5t39 -11t26 -25t5 -44.5q-4 -27 -21 -46t-39.5 -30
t-47.5 -16t-44 -5q-30 0 -63 8.5t-58 21.5l32 47q11 -5 29.5 -11t44.5 -6q23 0 45.5 6t25.5 26q2 18 -14.5 26t-31.5 8q-10 0 -18.5 -2t-18.5 -6l-28 29l66 82q-65 12 -116 42.5t-84 77.5t-46.5 109t-2.5 136q12 85 50.5 154t96 117.5t131.5 74.5t157 26q30 0 61.5 -5.5
t61.5 -17.5t56.5 -32t44.5 -49zM449 920h204l-193 -144h-132z" />
    <glyph glyph-name="ccedillaacute" unicode="&#x1e09;" horiz-adv-x="482" 
d="M428 329q-9 16 -27.5 26.5t-41.5 10.5q-57 0 -93 -34t-44 -89t18.5 -89t83.5 -34q25 0 45 11t35 26l84 -104q-41 -36 -90 -50.5t-92 -14.5q-7 0 -9 1l-40 -49q22 0 44 -2.5t39 -11t26 -25t5 -44.5q-4 -27 -21 -46t-39.5 -30t-47.5 -16t-44 -5q-30 0 -63 8.5t-58 21.5
l32 47q11 -5 29.5 -11t44.5 -6q23 0 45.5 6t25.5 26q2 18 -14.5 26t-31.5 8q-10 0 -18.5 -2t-18.5 -6l-28 29l73 90q-42 9 -75.5 30.5t-56 53t-31.5 72.5t-2 90q8 58 35.5 105t68.5 80.5t93 51.5t108 18q43 0 88.5 -14.5t75.5 -50.5zM331 693h204l-193 -144h-132z" />
    <glyph glyph-name="Ddotaccent" unicode="&#x1e0a;" horiz-adv-x="759" 
d="M171 708h234q85 0 158.5 -19t125 -61.5t75 -110.5t10.5 -165q-12 -86 -53.5 -151.5t-102.5 -110t-136.5 -67.5t-154.5 -23h-255zM248 144h81q54 0 102 11t85.5 36.5t62.5 67t34 101.5q7 52 -6.5 90.5t-43.5 63.5t-72.5 37.5t-91.5 12.5h-92zM485 758q-35 0 -55.5 25.5
t-15.5 60.5q2 16 10.5 31t21.5 26t28.5 18t32.5 7q35 0 57.5 -23t17.5 -59t-32.5 -61t-64.5 -25z" />
    <glyph glyph-name="ddotaccent" unicode="&#x1e0b;" horiz-adv-x="630" 
d="M563 0h-138l8 64h-2q-10 -13 -26.5 -26.5t-37.5 -24.5t-45.5 -18t-49.5 -7q-54 0 -95.5 18.5t-68.5 52t-37.5 79.5t-2.5 101q7 51 29 97.5t55.5 82.5t77.5 57.5t96 21.5q47 0 86 -14.5t59 -49.5h2l46 322h150zM459 243q8 55 -19 89t-84 34t-93 -34t-44 -89t18.5 -89
t83.5 -34t93.5 34t44.5 89zM423 806q-35 0 -55.5 25.5t-15.5 60.5q2 16 10.5 31t21.5 26t28.5 18t32.5 7q35 0 57.5 -23t17.5 -59t-32.5 -61t-64.5 -25z" />
    <glyph glyph-name="Ddotbelow" unicode="&#x1e0c;" horiz-adv-x="759" 
d="M171 708h234q85 0 158.5 -19t125 -61.5t75 -110.5t10.5 -165q-12 -86 -53.5 -151.5t-102.5 -110t-136.5 -67.5t-154.5 -23h-255zM248 144h81q54 0 102 11t85.5 36.5t62.5 67t34 101.5q7 52 -6.5 90.5t-43.5 63.5t-72.5 37.5t-91.5 12.5h-92zM348 -217q-35 0 -55.5 25.5
t-15.5 60.5q2 16 10.5 31t21.5 26t28.5 18t32.5 7q35 0 57.5 -23t17.5 -59t-32.5 -61t-64.5 -25z" />
    <glyph glyph-name="ddotbelow" unicode="&#x1e0d;" horiz-adv-x="630" 
d="M563 0h-138l8 64h-2q-10 -13 -26.5 -26.5t-37.5 -24.5t-45.5 -18t-49.5 -7q-54 0 -95.5 18.5t-68.5 52t-37.5 79.5t-2.5 101q7 51 29 97.5t55.5 82.5t77.5 57.5t96 21.5q47 0 86 -14.5t59 -49.5h2l46 322h150zM459 243q8 55 -19 89t-84 34t-93 -34t-44 -89t18.5 -89
t83.5 -34t93.5 34t44.5 89zM279 -229q-35 0 -55.5 25.5t-15.5 60.5q2 16 10.5 31t21.5 26t28.5 18t32.5 7q35 0 57.5 -23t17.5 -59t-32.5 -61t-64.5 -25z" />
    <glyph glyph-name="Dlinebelow" unicode="&#x1e0e;" horiz-adv-x="759" 
d="M171 708h234q85 0 158.5 -19t125 -61.5t75 -110.5t10.5 -165q-12 -86 -53.5 -151.5t-102.5 -110t-136.5 -67.5t-154.5 -23h-255zM248 144h81q54 0 102 11t85.5 36.5t62.5 67t34 101.5q7 52 -6.5 90.5t-43.5 63.5t-72.5 37.5t-91.5 12.5h-92zM530 -145h-340l13 96h340z
" />
    <glyph glyph-name="dlinebelow" unicode="&#x1e0f;" horiz-adv-x="630" 
d="M563 0h-138l8 64h-2q-10 -13 -26.5 -26.5t-37.5 -24.5t-45.5 -18t-49.5 -7q-54 0 -95.5 18.5t-68.5 52t-37.5 79.5t-2.5 101q7 51 29 97.5t55.5 82.5t77.5 57.5t96 21.5q47 0 86 -14.5t59 -49.5h2l46 322h150zM459 243q8 55 -19 89t-84 34t-93 -34t-44 -89t18.5 -89
t83.5 -34t93.5 34t44.5 89zM460 -157h-340l13 96h340z" />
    <glyph glyph-name="Dcommaaccent" unicode="&#x1e10;" horiz-adv-x="759" 
d="M171 708h234q85 0 158.5 -19t125 -61.5t75 -110.5t10.5 -165q-12 -86 -53.5 -151.5t-102.5 -110t-136.5 -67.5t-154.5 -23h-255zM248 144h81q54 0 102 11t85.5 36.5t62.5 67t34 101.5q7 52 -6.5 90.5t-43.5 63.5t-72.5 37.5t-91.5 12.5h-92zM334 -50h140l-126 -239h-124z
" />
    <glyph glyph-name="dcommaaccent" unicode="&#x1e11;" horiz-adv-x="630" 
d="M563 0h-138l8 64h-2q-10 -13 -26.5 -26.5t-37.5 -24.5t-45.5 -18t-49.5 -7q-54 0 -95.5 18.5t-68.5 52t-37.5 79.5t-2.5 101q7 51 29 97.5t55.5 82.5t77.5 57.5t96 21.5q47 0 86 -14.5t59 -49.5h2l46 322h150zM459 243q8 55 -19 89t-84 34t-93 -34t-44 -89t18.5 -89
t83.5 -34t93.5 34t44.5 89zM265 -62h140l-126 -239h-124z" />
    <glyph glyph-name="Dcircumflexbelow" unicode="&#x1e12;" horiz-adv-x="759" 
d="M171 708h234q85 0 158.5 -19t125 -61.5t75 -110.5t10.5 -165q-12 -86 -53.5 -151.5t-102.5 -110t-136.5 -67.5t-154.5 -23h-255zM248 144h81q54 0 102 11t85.5 36.5t62.5 67t34 101.5q7 52 -6.5 90.5t-43.5 63.5t-72.5 37.5t-91.5 12.5h-92zM424 -193l-52 78l-73 -78
h-135l139 144h163l96 -144h-138z" />
    <glyph glyph-name="dcircumflexbelow" unicode="&#x1e13;" horiz-adv-x="630" 
d="M563 0h-138l8 64h-2q-10 -13 -26.5 -26.5t-37.5 -24.5t-45.5 -18t-49.5 -7q-54 0 -95.5 18.5t-68.5 52t-37.5 79.5t-2.5 101q7 51 29 97.5t55.5 82.5t77.5 57.5t96 21.5q47 0 86 -14.5t59 -49.5h2l46 322h150zM459 243q8 55 -19 89t-84 34t-93 -34t-44 -89t18.5 -89
t83.5 -34t93.5 34t44.5 89zM354 -205l-52 78l-73 -78h-135l139 144h163l96 -144h-138z" />
    <glyph glyph-name="Emacrongrave" unicode="&#x1e14;" horiz-adv-x="630" 
d="M177 708h481l-20 -144h-325l-19 -132h307l-20 -144h-307l-20 -144h343l-20 -144h-499zM594 758h-340l13 96h340zM596 904h-132l-153 144h204z" />
    <glyph glyph-name="emacrongrave" unicode="&#x1e15;" 
d="M524 84q-42 -46 -100.5 -71t-117.5 -25q-56 0 -103 18t-78.5 51.5t-46 80.5t-6.5 105t35.5 105t68.5 80.5t93 51.5t108 18q52 0 92 -18t65 -51.5t34.5 -80.5t1.5 -105l-7 -47h-348q3 -43 29.5 -68.5t70.5 -25.5q37 0 64.5 16.5t50.5 42.5zM427 298q6 38 -16 65t-63 27
q-25 0 -45 -8t-35 -20.5t-25 -29t-14 -34.5h198zM534 549h-340l13 96h340zM537 694h-132l-153 144h204z" />
    <glyph glyph-name="Emacronacute" unicode="&#x1e16;" horiz-adv-x="630" 
d="M177 708h481l-20 -144h-325l-19 -132h307l-20 -144h-307l-20 -144h343l-20 -144h-499zM594 758h-340l13 96h340zM412 1048h204l-193 -144h-132z" />
    <glyph glyph-name="emacronacute" unicode="&#x1e17;" 
d="M524 84q-42 -46 -100.5 -71t-117.5 -25q-56 0 -103 18t-78.5 51.5t-46 80.5t-6.5 105t35.5 105t68.5 80.5t93 51.5t108 18q52 0 92 -18t65 -51.5t34.5 -80.5t1.5 -105l-7 -47h-348q3 -43 29.5 -68.5t70.5 -25.5q37 0 64.5 16.5t50.5 42.5zM427 298q6 38 -16 65t-63 27
q-25 0 -45 -8t-35 -20.5t-25 -29t-14 -34.5h198zM534 549h-340l13 96h340zM353 838h204l-193 -144h-132z" />
    <glyph glyph-name="Ecircumflexbelow" unicode="&#x1e18;" horiz-adv-x="630" 
d="M177 708h481l-20 -144h-325l-19 -132h307l-20 -144h-307l-20 -144h343l-20 -144h-499zM362 -193l-52 78l-73 -78h-135l139 144h163l96 -144h-138z" />
    <glyph glyph-name="ecircumflexbelow" unicode="&#x1e19;" 
d="M524 84q-42 -46 -100.5 -71t-117.5 -25q-56 0 -103 18t-78.5 51.5t-46 80.5t-6.5 105t35.5 105t68.5 80.5t93 51.5t108 18q52 0 92 -18t65 -51.5t34.5 -80.5t1.5 -105l-7 -47h-348q3 -43 29.5 -68.5t70.5 -25.5q37 0 64.5 16.5t50.5 42.5zM427 298q6 38 -16 65t-63 27
q-25 0 -45 -8t-35 -20.5t-25 -29t-14 -34.5h198zM329 -205l-52 78l-73 -78h-135l139 144h163l96 -144h-138z" />
    <glyph glyph-name="Etildebelow" unicode="&#x1e1a;" horiz-adv-x="630" 
d="M177 708h481l-20 -144h-325l-19 -132h307l-20 -144h-307l-20 -144h343l-20 -144h-499zM96 -187q7 25 20.5 50t32 44.5t42 31.5t51.5 12q25 0 44.5 -6t39.5 -15l26 -10t28 -5q17 0 28.5 10.5t20.5 25.5h78q-9 -29 -21.5 -54t-30.5 -43.5t-42 -29.5t-55 -11
q-22 0 -40.5 6.5t-34.5 14.5q-17 8 -31 14.5t-29 6.5q-17 0 -29.5 -14t-18.5 -28h-79z" />
    <glyph glyph-name="etildebelow" unicode="&#x1e1b;" 
d="M524 84q-42 -46 -100.5 -71t-117.5 -25q-56 0 -103 18t-78.5 51.5t-46 80.5t-6.5 105t35.5 105t68.5 80.5t93 51.5t108 18q52 0 92 -18t65 -51.5t34.5 -80.5t1.5 -105l-7 -47h-348q3 -43 29.5 -68.5t70.5 -25.5q37 0 64.5 16.5t50.5 42.5zM427 298q6 38 -16 65t-63 27
q-25 0 -45 -8t-35 -20.5t-25 -29t-14 -34.5h198zM63 -199q7 25 20.5 50t32 44.5t42 31.5t51.5 12q25 0 44.5 -6t39.5 -15l26 -10t28 -5q17 0 28.5 10.5t20.5 25.5h78q-9 -29 -21.5 -54t-30.5 -43.5t-42 -29.5t-55 -11q-22 0 -40.5 6.5t-34.5 14.5q-17 8 -31 14.5t-29 6.5
q-17 0 -29.5 -14t-18.5 -28h-79z" />
    <glyph glyph-name="Ecedillabreve" unicode="&#x1e1c;" horiz-adv-x="630" 
d="M177 708h481l-20 -144h-325l-19 -132h307l-20 -144h-307l-20 -144h343l-20 -144h-499zM332 902q1 -15 10.5 -24t23 -14.5t30 -7.5t33.5 -2q39 0 67.5 7.5t44.5 40.5h79q-9 -38 -29 -65.5t-47 -45t-59.5 -25.5t-68.5 -8t-67 7.5t-54 25t-34.5 45t-8.5 66.5h80zM322 -60
q22 0 44 -2.5t39 -11t26 -25t5 -44.5q-4 -27 -21 -46t-39.5 -30t-47.5 -16t-44 -5q-30 0 -62.5 8.5t-57.5 21.5l32 47q11 -5 29 -11t44 -6q23 0 45.5 6t25.5 26q2 18 -14.5 26t-31.5 8q-10 0 -18.5 -2t-18.5 -6l-28 29l76 93h67z" />
    <glyph glyph-name="ecedillabreve" unicode="&#x1e1d;" 
d="M524 84q-42 -46 -100.5 -71t-117.5 -25q-56 0 -103 18t-78.5 51.5t-46 80.5t-6.5 105t35.5 105t68.5 80.5t93 51.5t108 18q52 0 92 -18t65 -51.5t34.5 -80.5t1.5 -105l-7 -47h-348q3 -43 29.5 -68.5t70.5 -25.5q37 0 64.5 16.5t50.5 42.5zM427 298q6 38 -16 65t-63 27
q-25 0 -45 -8t-35 -20.5t-25 -29t-14 -34.5h198zM272 693q1 -15 10.5 -24t23 -14.5t30 -7.5t33.5 -2q39 0 67.5 7.5t44.5 40.5h79q-9 -38 -29 -65.5t-47 -45t-59.5 -25.5t-68.5 -8t-67 7.5t-54 25t-34.5 45t-8.5 66.5h80zM290 -71q22 0 44 -2.5t39 -11t26 -25t5 -44.5
q-4 -27 -21 -46t-39.5 -30t-47.5 -16t-44 -5q-30 0 -62.5 8.5t-57.5 21.5l32 47q11 -5 29 -11t44 -6q23 0 45.5 6t25.5 26q2 18 -14.5 26t-31.5 8q-10 0 -18.5 -2t-18.5 -6l-28 29l76 93h67z" />
    <glyph glyph-name="Fdotaccent" unicode="&#x1e1e;" horiz-adv-x="593" 
d="M177 708h475l-20 -144h-319l-20 -144h295l-21 -144h-295l-38 -276h-156zM420 758q-35 0 -55.5 25.5t-15.5 60.5q2 16 10.5 31t21.5 26t28.5 18t32.5 7q35 0 57.5 -23t17.5 -59t-32.5 -61t-64.5 -25z" />
    <glyph glyph-name="fdotaccent" unicode="&#x1e1f;" horiz-adv-x="370" 
d="M156 366h-99l17 120h99l12 86q6 40 17.5 75.5t35.5 62.5t63.5 42.5t100.5 15.5q23 0 45 -2t42 -7l-25 -127q-12 5 -22.5 7.5t-24.5 2.5q-36 0 -56 -15.5t-27 -63.5l-11 -77h111l-17 -120h-111l-51 -366h-150zM332 818q-35 0 -55.5 25.5t-15.5 60.5q2 16 10.5 31t21.5 26
t28.5 18t32.5 7q35 0 57.5 -23t17.5 -59t-32.5 -61t-64.5 -25z" />
    <glyph glyph-name="Gmacron" unicode="&#x1e20;" horiz-adv-x="778" 
d="M720 50q-75 -36 -152 -52t-155 -16q-83 0 -149.5 26t-110.5 74.5t-63 117.5t-7 154t50.5 154t96 117.5t131.5 74.5t157 26q85 0 153.5 -20.5t115.5 -70.5l-127 -120q-27 33 -65 50t-98 17q-50 0 -93 -17t-76 -47.5t-54.5 -72.5t-28.5 -91q-7 -50 3 -91.5t34.5 -72
t62.5 -47.5t88 -17q51 0 90 11.5t62 23.5l16 115h-127l21 144h277zM658 776h-340l13 96h340z" />
    <glyph glyph-name="gmacron" unicode="&#x1e21;" horiz-adv-x="630" 
d="M568 41q-19 -138 -98.5 -209.5t-221.5 -71.5q-65 0 -126 14.5t-108 56.5l100 124q31 -29 67 -46t82 -17q69 0 106 33.5t45 85.5l7 47h-2q-31 -35 -71.5 -49.5t-74.5 -14.5q-54 0 -95.5 18.5t-68.5 52t-37.5 79.5t-2.5 101q7 48 28.5 94t55 81t77.5 56.5t96 21.5
q32 0 58 -7t45.5 -18t32.5 -24.5t20 -26.5h2l9 64h138zM219 246q-3 -24 3 -45.5t19.5 -38t34 -26.5t46.5 -10q25 0 48.5 10t42 26.5t31 38t15.5 45.5t-3 45.5t-19.5 38t-34.5 26.5t-46 10q-26 0 -49 -10t-41.5 -26.5t-31 -38t-15.5 -45.5zM551 549h-340l13 96h340z" />
    <glyph glyph-name="Hdotaccent" unicode="&#x1e22;" horiz-adv-x="759" 
d="M171 708h156l-37 -264h303l37 264h156l-99 -708h-156l43 306h-303l-43 -306h-156zM484 758q-35 0 -55.5 25.5t-15.5 60.5q2 16 10.5 31t21.5 26t28.5 18t32.5 7q35 0 57.5 -23t17.5 -59t-32.5 -61t-64.5 -25z" />
    <glyph glyph-name="hdotaccent" unicode="&#x1e23;" 
d="M309 756l-47 -336h2q7 14 20.5 28t32 25t42.5 18t51 7q57 0 90 -17.5t48 -48.5t16 -73t-6 -91l-37 -268h-150l33 238q3 21 5 43.5t-3 41.5t-19 31t-43 12t-48.5 -10.5t-31.5 -28t-18 -39.5t-9 -46l-34 -242h-150l106 756h150zM367 806q-35 0 -55.5 25.5t-15.5 60.5
q2 16 10.5 31t21.5 26t28.5 18t32.5 7q35 0 57.5 -23t17.5 -59t-32.5 -61t-64.5 -25z" />
    <glyph glyph-name="Hdotbelow" unicode="&#x1e24;" horiz-adv-x="759" 
d="M171 708h156l-37 -264h303l37 264h156l-99 -708h-156l43 306h-303l-43 -306h-156zM347 -217q-35 0 -55.5 25.5t-15.5 60.5q2 16 10.5 31t21.5 26t28.5 18t32.5 7q35 0 57.5 -23t17.5 -59t-32.5 -61t-64.5 -25z" />
    <glyph glyph-name="hdotbelow" unicode="&#x1e25;" 
d="M309 756l-47 -336h2q7 14 20.5 28t32 25t42.5 18t51 7q57 0 90 -17.5t48 -48.5t16 -73t-6 -91l-37 -268h-150l33 238q3 21 5 43.5t-3 41.5t-19 31t-43 12t-48.5 -10.5t-31.5 -28t-18 -39.5t-9 -46l-34 -242h-150l106 756h150zM224 -217q-35 0 -55.5 25.5t-15.5 60.5
q2 16 10.5 31t21.5 26t28.5 18t32.5 7q35 0 57.5 -23t17.5 -59t-32.5 -61t-64.5 -25z" />
    <glyph glyph-name="Hdieresis" unicode="&#x1e26;" horiz-adv-x="759" 
d="M171 708h156l-37 -264h303l37 264h156l-99 -708h-156l43 306h-303l-43 -306h-156zM380 758q-35 0 -55.5 25.5t-15.5 60.5q2 16 10.5 31t21.5 26t28.5 18t32.5 7q35 0 57.5 -23t17.5 -59t-32.5 -61t-64.5 -25zM588 758q-35 0 -55.5 25.5t-15.5 60.5q2 16 10.5 31t21.5 26
t28.5 18t32.5 7q35 0 57.5 -23t17.5 -59t-32.5 -61t-64.5 -25z" />
    <glyph glyph-name="hdieresis" unicode="&#x1e27;" 
d="M309 756l-47 -336h2q7 14 20.5 28t32 25t42.5 18t51 7q57 0 90 -17.5t48 -48.5t16 -73t-6 -91l-37 -268h-150l33 238q3 21 5 43.5t-3 41.5t-19 31t-43 12t-48.5 -10.5t-31.5 -28t-18 -39.5t-9 -46l-34 -242h-150l106 756h150zM263 806q-35 0 -55.5 25.5t-15.5 60.5
q2 16 10.5 31t21.5 26t28.5 18t32.5 7q35 0 57.5 -23t17.5 -59t-32.5 -61t-64.5 -25zM471 806q-35 0 -55.5 25.5t-15.5 60.5q2 16 10.5 31t21.5 26t28.5 18t32.5 7q35 0 57.5 -23t17.5 -59t-32.5 -61t-64.5 -25z" />
    <glyph glyph-name="Hcedilla" unicode="&#x1e28;" horiz-adv-x="759" 
d="M171 708h156l-37 -264h303l37 264h156l-99 -708h-156l43 306h-303l-43 -306h-156zM197 -60q22 0 44 -2.5t39 -11t26 -25t5 -44.5q-4 -27 -21 -46t-39.5 -30t-47.5 -16t-44 -5q-30 0 -62.5 8.5t-57.5 21.5l32 47q11 -5 29 -11t44 -6q23 0 45.5 6t25.5 26q2 18 -14.5 26
t-31.5 8q-10 0 -18.5 -2t-18.5 -6l-28 29l76 93h67z" />
    <glyph glyph-name="hcedilla" unicode="&#x1e29;" 
d="M309 756l-47 -336h2q7 14 20.5 28t32 25t42.5 18t51 7q57 0 90 -17.5t48 -48.5t16 -73t-6 -91l-37 -268h-150l33 238q3 21 5 43.5t-3 41.5t-19 31t-43 12t-48.5 -10.5t-31.5 -28t-18 -39.5t-9 -46l-34 -242h-150l106 756h150zM178 -60q22 0 44 -2.5t39 -11t26 -25
t5 -44.5q-4 -27 -21 -46t-39.5 -30t-47.5 -16t-44 -5q-30 0 -62.5 8.5t-57.5 21.5l32 47q11 -5 29 -11t44 -6q23 0 45.5 6t25.5 26q2 18 -14.5 26t-31.5 8q-10 0 -18.5 -2t-18.5 -6l-28 29l76 93h67z" />
    <glyph glyph-name="Hbrevebelow" unicode="&#x1e2a;" horiz-adv-x="759" 
d="M171 708h156l-37 -264h303l37 264h156l-99 -708h-156l43 306h-303l-43 -306h-156zM260 -49q1 -15 10.5 -24t23 -14.5t30 -7.5t33.5 -2q39 0 67.5 7.5t44.5 40.5h79q-9 -38 -29 -65.5t-47 -45t-59.5 -25.5t-68.5 -8t-67 7.5t-54 25t-34.5 45t-8.5 66.5h80z" />
    <glyph glyph-name="hbrevebelow" unicode="&#x1e2b;" 
d="M309 756l-47 -336h2q7 14 20.5 28t32 25t42.5 18t51 7q57 0 90 -17.5t48 -48.5t16 -73t-6 -91l-37 -268h-150l33 238q3 21 5 43.5t-3 41.5t-19 31t-43 12t-48.5 -10.5t-31.5 -28t-18 -39.5t-9 -46l-34 -242h-150l106 756h150zM137 -49q1 -15 10.5 -24t23 -14.5t30 -7.5
t33.5 -2q39 0 67.5 7.5t44.5 40.5h79q-9 -38 -29 -65.5t-47 -45t-59.5 -25.5t-68.5 -8t-67 7.5t-54 25t-34.5 45t-8.5 66.5h80z" />
    <glyph glyph-name="Itildebelow" unicode="&#x1e2c;" horiz-adv-x="296" 
d="M169 708h156l-99 -708h-156zM-73 -187q7 25 20.5 50t32 44.5t42 31.5t51.5 12q25 0 44.5 -6t39.5 -15l26 -10t28 -5q17 0 28.5 10.5t20.5 25.5h78q-9 -29 -21.5 -54t-30.5 -43.5t-42 -29.5t-55 -11q-22 0 -40.5 6.5t-34.5 14.5q-17 8 -31 14.5t-29 6.5q-17 0 -29.5 -14
t-18.5 -28h-79z" />
    <glyph glyph-name="itildebelow" unicode="&#x1e2d;" horiz-adv-x="260" 
d="M123 486h150l-68 -486h-150zM132 639q3 18 12 34t22.5 27.5t30.5 18.5t35 7q36 0 57.5 -25.5t16.5 -61.5q-2 -18 -11 -34t-22.5 -27.5t-30.5 -18.5t-35 -7t-33 7t-25 18.5t-14.5 27.5t-2.5 34zM-89 -187q7 25 20.5 50t32 44.5t42 31.5t51.5 12q25 0 44.5 -6t39.5 -15
l26 -10t28 -5q17 0 28.5 10.5t20.5 25.5h78q-9 -29 -21.5 -54t-30.5 -43.5t-42 -29.5t-55 -11q-22 0 -40.5 6.5t-34.5 14.5q-17 8 -31 14.5t-29 6.5q-17 0 -29.5 -14t-18.5 -28h-79z" />
    <glyph glyph-name="Idieresisacute" unicode="&#x1e2e;" horiz-adv-x="296" 
d="M169 708h156l-99 -708h-156zM149 758q-35 0 -55.5 25.5t-15.5 60.5q2 16 10.5 31t21.5 26t28.5 18t32.5 7q35 0 57.5 -23t17.5 -59t-32.5 -61t-64.5 -25zM357 758q-35 0 -55.5 25.5t-15.5 60.5q2 16 10.5 31t21.5 26t28.5 18t32.5 7q35 0 57.5 -23t17.5 -59t-32.5 -61
t-64.5 -25zM253 1120h204l-193 -144h-132z" />
    <glyph glyph-name="idieresisacute" unicode="&#x1e2f;" horiz-adv-x="260" 
d="M123 486h150l-68 -486h-150zM101 537q-35 0 -55.5 25.5t-15.5 60.5q2 16 10.5 31t21.5 26t28.5 18t32.5 7q35 0 57.5 -23t17.5 -59t-32.5 -61t-64.5 -25zM309 537q-35 0 -55.5 25.5t-15.5 60.5q2 16 10.5 31t21.5 26t28.5 18t32.5 7q35 0 57.5 -23t17.5 -59t-32.5 -61
t-64.5 -25zM205 898h204l-193 -144h-132z" />
    <glyph glyph-name="Kacute" unicode="&#x1e30;" horiz-adv-x="722" 
d="M177 708h156l-41 -294l316 294h204l-361 -329l289 -379h-218l-241 336l-47 -336h-156zM470 902h204l-193 -144h-132z" />
    <glyph glyph-name="kacute" unicode="&#x1e31;" horiz-adv-x="556" 
d="M159 756h150l-65 -462l193 192h184l-224 -219l161 -267h-189l-130 246h-2l-34 -246h-150zM366 950h204l-193 -144h-132z" />
    <glyph glyph-name="Kdotbelow" unicode="&#x1e32;" horiz-adv-x="722" 
d="M177 708h156l-41 -294l316 294h204l-361 -329l289 -379h-218l-241 336l-47 -336h-156zM363 -217q-35 0 -55.5 25.5t-15.5 60.5q2 16 10.5 31t21.5 26t28.5 18t32.5 7q35 0 57.5 -23t17.5 -59t-32.5 -61t-64.5 -25z" />
    </font>
</defs>
</svg>
