<?xml version="1.0" standalone="no"?>
<!DOCTYPE svg PUBLIC "-//W3C//DTD SVG 1.1//EN" "http://www.w3.org/Graphics/SVG/1.1/DTD/svg11.dtd" >
<svg xmlns="http://www.w3.org/2000/svg" xmlns:xlink="http://www.w3.org/1999/xlink" version="1.1">
<metadata>
Created by FontForge 20170910 at Tue Jun 27 06:56:12 2017
 By Jimmy Wärting
Copyright(c) 2007 Linotype GmbH, www.linotype.com. All rights reserved.
</metadata>
<defs>
<font id="Avenir-Black" horiz-adv-x="574" >
  <font-face 
    font-family="Avenir Black"
    font-weight="800"
    font-stretch="normal"
    units-per-em="1000"
    panose-1="2 11 8 3 2 2 3 2 2 4"
    ascent="800"
    descent="-200"
    x-height="486"
    cap-height="708"
    bbox="-516 -457 1522 1205"
    underline-thickness="50"
    underline-position="-100"
    unicode-range="U+000D-FE48"
  />
<missing-glyph horiz-adv-x="512" 
d="M222 117v67h56v-67h-56zM225 234l-2 17q0 56 13 81q7 13 18 27.5t28 31.5q32 30 41 47.5t9 35.5q0 36 -22.5 60.5t-53.5 24.5t-53.5 -22t-28.5 -73l-50 8q7 72 44 104.5t91 32.5t89 -35.5t35 -95.5q0 -32 -12.5 -58.5t-50.5 -61.5q-37 -33 -43 -52q-6 -20 -6 -72h-46z
M462 50v617h-412v-617h412zM512 718v-718h-512v718h512z" />
    <glyph glyph-name="IJ" unicode="IJ" horiz-adv-x="791" 
d="M70 708h156v-708h-156v708zM729 237q0 -49 -8.5 -95t-32.5 -81.5t-68.5 -57t-116.5 -21.5q-84 0 -142 40t-75 125l143 35q3 -26 23.5 -44t46.5 -18q27 0 42 13.5t22 33.5t8.5 43.5t1.5 43.5v454h156v-471z" />
    <glyph glyph-name="ij" unicode="ij" horiz-adv-x="512" 
d="M55 486h150v-486h-150v486zM43 639q0 36 25.5 61.5t61.5 25.5t61.5 -25.5t25.5 -61.5t-25.5 -61.5t-61.5 -25.5t-61.5 25.5t-25.5 61.5zM457 -36q0 -47 -9 -84.5t-30 -64t-55.5 -41t-85.5 -14.5q-17 0 -35 1.5t-35 6.5l8 133q18 -9 39 -9q19 0 30 10t16 25t6 32t1 31v496
h150v-522zM295 639q0 36 25.5 61.5t61.5 25.5t61.5 -25.5t25.5 -61.5t-25.5 -61.5t-61.5 -25.5t-61.5 25.5t-25.5 61.5z" />
    <glyph glyph-name="napostrophe" unicode="&#x22;n" 
d="M53 486h144v-66h2q7 14 20 28t31 25t41 18t50 7q57 0 92 -17.5t54.5 -48.5t26.5 -73t7 -91v-268h-150v238q0 21 -1.5 43.5t-9 41.5t-23 31t-44.5 12t-47 -10.5t-27.5 -28t-12.5 -39.5t-3 -46v-242h-150v486zM-32 708h134l-80 -199h-98z" />
    <glyph glyph-name="fi" unicode="fi" horiz-adv-x="630" 
d="M425 486h150v-486h-150v486zM413 639q0 36 25.5 61.5t61.5 25.5t61.5 -25.5t25.5 -61.5t-25.5 -61.5t-61.5 -25.5t-61.5 25.5t-25.5 61.5zM105 366h-99v120h99v86q0 40 7 75.5t27 62.5t57.5 42.5t98.5 15.5q23 0 45 -2t43 -7l-7 -127q-13 5 -24 7.5t-25 2.5
q-36 0 -54 -15.5t-18 -63.5v-77h111v-120h-111v-366h-150v366z" />
    <glyph glyph-name="fl" unicode="fl" horiz-adv-x="630" 
d="M425 756h150v-756h-150v756zM105 366h-99v120h99v86q0 40 7 75.5t27 62.5t57.5 42.5t98.5 15.5q23 0 45 -2t43 -7l-7 -127q-13 5 -24 7.5t-25 2.5q-36 0 -54 -15.5t-18 -63.5v-77h111v-120h-111v-366h-150v366z" />
    <glyph glyph-name=".notdef" horiz-adv-x="512" 
d="M222 117v67h56v-67h-56zM225 234l-2 17q0 56 13 81q7 13 18 27.5t28 31.5q32 30 41 47.5t9 35.5q0 36 -22.5 60.5t-53.5 24.5t-53.5 -22t-28.5 -73l-50 8q7 72 44 104.5t91 32.5t89 -35.5t35 -95.5q0 -32 -12.5 -58.5t-50.5 -61.5q-37 -33 -43 -52q-6 -20 -6 -72h-46z
M462 50v617h-412v-617h412zM512 718v-718h-512v718h512z" />
    <glyph glyph-name="nonmarkingreturn" unicode="&#xd;" horiz-adv-x="0" 
 />
    <glyph glyph-name="space" unicode=" " horiz-adv-x="296" 
 />
    <glyph glyph-name="exclam" unicode="!" horiz-adv-x="444" 
d="M297 234h-150v474h150v-474zM130 86q0 19 7 36t19.5 29.5t29.5 19.5t36 7t36 -7t29.5 -19.5t19.5 -29.5t7 -36t-7 -36t-19.5 -29.5t-29.5 -19.5t-36 -7t-36 7t-29.5 19.5t-19.5 29.5t-7 36z" />
    <glyph glyph-name="quotedbl" unicode="&#x22;" horiz-adv-x="520" 
d="M313 708h126v-282h-126v282zM81 708h126v-282h-126v282z" />
    <glyph glyph-name="numbersign" unicode="#" horiz-adv-x="592" 
d="M129 201h-84v90h96l17 126h-84v90h96l28 201h97l-28 -201h99l28 201h97l-28 -201h84v-90h-96l-17 -126h84v-90h-96l-28 -201h-97l28 201h-99l-28 -201h-97zM354 417h-99l-17 -126h99z" />
    <glyph glyph-name="dollar" unicode="$" horiz-adv-x="592" 
d="M328 720q54 0 112 -14t102 -49l-96 -117q-24 21 -55 30.5t-63 11.5v-159l96 -28q66 -20 105.5 -65.5t39.5 -115.5q0 -53 -19 -93t-52 -68t-77 -44t-93 -21v-70h-66v70q-66 0 -131.5 18t-115.5 63l106 119q26 -32 63 -45.5t78 -16.5v169l-73 22q-76 24 -115.5 67.5
t-39.5 119.5q0 47 19 85t50.5 65t73 44t85.5 22v70h66v-70zM262 579q-28 -6 -50 -21t-22 -47q0 -23 9 -36t21 -20.5t24 -10.5t18 -5v140zM328 128q15 3 30.5 8.5t27.5 14.5t19.5 21.5t7.5 29.5q0 16 -5.5 27t-14.5 18.5t-21 13t-25 10.5l-19 7v-150z" />
    <glyph glyph-name="percent" unicode="%" horiz-adv-x="907" 
d="M508 187q0 41 15.5 77t42 63t62.5 42.5t77 15.5t77 -15.5t62.5 -42.5t42 -63t15.5 -77t-15.5 -77.5t-42 -63.5t-62.5 -42.5t-77 -15.5t-77 15.5t-62.5 42.5t-42 63.5t-15.5 77.5zM800 187q0 40 -27.5 68t-67.5 28t-67.5 -28t-27.5 -68q0 -41 27.5 -69t67.5 -28t67.5 28
t27.5 69zM5 522q0 41 15.5 77t42 63t62.5 42.5t77 15.5t77 -15.5t62.5 -42.5t42 -63t15.5 -77t-15.5 -77t-42 -63t-62.5 -42.5t-77 -15.5t-77 15.5t-62.5 42.5t-42 63t-15.5 77zM297 522q0 40 -27.5 68t-67.5 28t-67.5 -28t-27.5 -68t27.5 -68t67.5 -28t67.5 28t27.5 68z
M615 740l84 -47l-413 -725l-76 43z" />
    <glyph glyph-name="ampersand" unicode="&#x26;" horiz-adv-x="759" 
d="M595 167l158 -167h-193l-59 67q-44 -45 -94.5 -65t-113.5 -20q-48 0 -93 13t-80.5 39.5t-56.5 66.5t-21 93q0 34 11.5 64.5t32 55.5t47.5 43.5t59 29.5q-17 19 -31.5 36t-25 36t-16 40t-5.5 47q0 48 18.5 82t49.5 56t71 32t82 10q41 0 78 -10.5t65.5 -32t45.5 -54
t17 -77.5q0 -32 -10.5 -59t-28.5 -50.5t-41.5 -42t-50.5 -32.5l91 -97l69 94h174zM333 606q-29 0 -49 -18t-20 -48q0 -13 6 -25.5t14.5 -24t19 -21.5t19.5 -18q12 7 26 16.5t26 21t20 25t8 28.5q0 31 -20.5 47.5t-49.5 16.5zM285 302q-15 -9 -29.5 -18.5t-26 -21
t-18.5 -26.5t-7 -35t8 -36t21 -27t30.5 -17.5t35.5 -6.5q35 0 60.5 15t50.5 37z" />
    <glyph glyph-name="quotesingle" unicode="'" horiz-adv-x="296" 
d="M85 708h126v-282h-126v282z" />
    <glyph glyph-name="parenleft" unicode="(" horiz-adv-x="314" 
d="M293 672q-30 -48 -54 -92t-40.5 -89.5t-25.5 -95t-9 -107.5t9 -107.5t25.5 -95t40.5 -89.5t54 -92l-103 -60l-2 4q-69 103 -106.5 209.5t-37.5 230.5t37.5 230.5t106.5 209.5l2 4z" />
    <glyph glyph-name="parenright" unicode=")" horiz-adv-x="314" 
d="M21 -96q30 48 54 92t40.5 89.5t25.5 95t9 107.5t-9 107.5t-25.5 95t-40.5 89.5t-54 92l103 60l2 -4q69 -103 106.5 -209.5t37.5 -230.5t-37.5 -230.5t-106.5 -209.5l-2 -4z" />
    <glyph glyph-name="asterisk" unicode="*" horiz-adv-x="482" 
d="M293 570l131 43l30 -95l-131 -42l83 -114l-83 -61l-84 115l-81 -110l-81 61l84 109l-133 46l32 95l131 -47v138h102v-138z" />
    <glyph glyph-name="plus" unicode="+" horiz-adv-x="666" 
d="M59 366h211v211h126v-211h211v-126h-211v-211h-126v211h-211v126z" />
    <glyph glyph-name="comma" unicode="," horiz-adv-x="296" 
d="M91 162h144l-90 -282h-128z" />
    <glyph glyph-name="hyphen" unicode="-" horiz-adv-x="296" 
d="M271 189h-246v120h246v-120z" />
    <glyph glyph-name="period" unicode="." horiz-adv-x="296" 
d="M56 86q0 19 7 36t19.5 29.5t29.5 19.5t36 7t36 -7t29.5 -19.5t19.5 -29.5t7 -36t-7 -36t-19.5 -29.5t-29.5 -19.5t-36 -7t-36 7t-29.5 19.5t-19.5 29.5t-7 36z" />
    <glyph glyph-name="slash" unicode="/" horiz-adv-x="407" 
d="M296 761l114 -35l-300 -779l-113 35z" />
    <glyph glyph-name="zero" unicode="0" horiz-adv-x="592" 
d="M33 354q0 63 11.5 128t41 118t80.5 86.5t130 33.5t130 -33.5t80.5 -86.5t41 -118t11.5 -128t-11.5 -128t-41 -118t-80.5 -86.5t-130 -33.5t-130 33.5t-80.5 86.5t-41 118t-11.5 128zM183 354q0 -28 2.5 -67t13.5 -75t33.5 -61t63.5 -25q40 0 63 25t34 61t13.5 75t2.5 67
t-2.5 67t-13.5 75t-34 61t-63 25q-41 0 -63.5 -25t-33.5 -61t-13.5 -75t-2.5 -67z" />
    <glyph glyph-name="one" unicode="1" horiz-adv-x="592" 
d="M288 540l-142 -125l-85 98l231 195h140v-708h-144v540z" />
    <glyph glyph-name="two" unicode="2" horiz-adv-x="592" 
d="M49 159l275 247q21 19 42 43t21 56q0 36 -26 56.5t-61 20.5q-42 0 -65.5 -26t-26.5 -64l-150 11q3 55 23 95.5t53 67.5t77.5 40.5t96.5 13.5q48 0 90 -13.5t73 -40t48.5 -66.5t17.5 -93q0 -34 -7 -61.5t-19.5 -50t-29.5 -41.5t-37 -37l-215 -185h314v-132h-494v159z" />
    <glyph glyph-name="three" unicode="3" horiz-adv-x="592" 
d="M216 429h49q21 0 41 3t36.5 11.5t26.5 24t10 40.5q0 32 -25.5 53t-62.5 21q-35 0 -58 -19t-30 -47l-165 34q12 46 36 78.5t57 52.5t73.5 29.5t85.5 9.5q47 0 90.5 -11.5t76.5 -36t52.5 -61.5t19.5 -88q0 -59 -31 -101t-90 -54v-3q32 -4 56.5 -19t41.5 -37t26 -50t9 -59
q0 -53 -20.5 -93t-55 -66.5t-81 -39.5t-98.5 -13q-95 0 -163.5 44t-90.5 139l158 37q8 -38 32.5 -60t72.5 -22q49 0 72.5 25.5t23.5 65.5q0 30 -12.5 46.5t-32.5 24.5t-45 9.5t-50 1.5h-35v130z" />
    <glyph glyph-name="four" unicode="4" horiz-adv-x="592" 
d="M333 142h-309v126l289 440h164v-440h91v-126h-91v-142h-144v142zM333 512h-2l-157 -244h159v244z" />
    <glyph glyph-name="five" unicode="5" horiz-adv-x="592" 
d="M517 576h-281l-3 -109q23 8 63 8q54 0 99 -16t77.5 -46.5t50.5 -74t18 -97.5q0 -60 -20.5 -107t-56.5 -79.5t-85.5 -49.5t-107.5 -17q-92 0 -154 45t-85 136l157 36q6 -38 32 -61.5t65 -23.5q48 0 76.5 30t28.5 76q0 35 -14.5 57.5t-38 36t-52.5 18.5t-58 5
q-37 0 -74.5 -7t-72.5 -19l8 391h428v-132z" />
    <glyph glyph-name="six" unicode="6" horiz-adv-x="592" 
d="M287 455q12 3 24 5t25 2q50 0 91 -18t70 -49t45 -73.5t16 -90.5q0 -55 -20.5 -99.5t-56 -76.5t-84 -49.5t-103.5 -17.5q-56 0 -104 17.5t-83.5 49.5t-56 76.5t-20.5 99.5q0 38 7 69.5t18.5 59.5t27 53.5t32.5 52.5l155 242h183zM408 237q0 48 -31.5 79.5t-82.5 31.5
t-82.5 -31.5t-31.5 -79.5t31.5 -79.5t82.5 -31.5t82.5 31.5t31.5 79.5z" />
    <glyph glyph-name="seven" unicode="7" horiz-adv-x="592" 
d="M387 570h-350v138h518v-132l-283 -576h-175z" />
    <glyph glyph-name="eight" unicode="8" horiz-adv-x="592" 
d="M59 525q0 49 18.5 85.5t51 61t75.5 36.5t92 12t92 -12t75 -36.5t51 -61t19 -85.5q0 -58 -31.5 -99t-88.5 -58v-2q64 -17 98 -61.5t34 -110.5q0 -51 -20.5 -90t-55 -64.5t-79.5 -38.5t-94 -13t-94 13t-79.5 38.5t-55 64.5t-20.5 90q0 66 34 110.5t98 61.5v2
q-57 17 -88.5 58t-31.5 99zM209 504q0 -33 24 -56t63 -23t63 23t24 56q0 32 -24 55t-63 23t-63 -23t-24 -55zM197 215q0 -37 27 -63t72 -26t72 26t27 63q0 38 -27 64t-72 26t-72 -26t-27 -64z" />
    <glyph glyph-name="nine" unicode="9" horiz-adv-x="592" 
d="M305 253q-12 -3 -24 -5t-25 -2q-50 0 -91 18t-70 49t-45 73.5t-16 90.5q0 55 20.5 99.5t56 76.5t83.5 49.5t104 17.5q55 0 103.5 -17.5t84 -49.5t56 -76.5t20.5 -99.5q0 -38 -7 -69.5t-18.5 -59.5t-27 -53.5t-32.5 -52.5l-155 -242h-183zM184 471q0 -48 31.5 -79.5
t82.5 -31.5t82.5 31.5t31.5 79.5t-31.5 79.5t-82.5 31.5t-82.5 -31.5t-31.5 -79.5z" />
    <glyph glyph-name="colon" unicode=":" horiz-adv-x="296" 
d="M56 86q0 19 7 36t19.5 29.5t29.5 19.5t36 7t36 -7t29.5 -19.5t19.5 -29.5t7 -36t-7 -36t-19.5 -29.5t-29.5 -19.5t-36 -7t-36 7t-29.5 19.5t-19.5 29.5t-7 36zM56 406q0 19 7 36t19.5 29.5t29.5 19.5t36 7t36 -7t29.5 -19.5t19.5 -29.5t7 -36t-7 -36t-19.5 -29.5
t-29.5 -19.5t-36 -7t-36 7t-29.5 19.5t-19.5 29.5t-7 36z" />
    <glyph glyph-name="semicolon" unicode=";" horiz-adv-x="296" 
d="M91 162h144l-90 -282h-128zM56 406q0 19 7 36t19.5 29.5t29.5 19.5t36 7t36 -7t29.5 -19.5t19.5 -29.5t7 -36t-7 -36t-19.5 -29.5t-29.5 -19.5t-36 -7t-36 7t-29.5 19.5t-19.5 29.5t-7 36z" />
    <glyph glyph-name="less" unicode="&#x3c;" horiz-adv-x="666" 
d="M586 428l-317 -124v-2l317 -124v-136l-506 198v126l506 198v-136z" />
    <glyph glyph-name="equal" unicode="=" horiz-adv-x="666" 
d="M59 462h548v-126h-548v126zM59 270h548v-126h-548v126z" />
    <glyph glyph-name="greater" unicode="&#x3e;" horiz-adv-x="666" 
d="M80 178l317 124v2l-317 124v136l506 -198v-126l-506 -198v136z" />
    <glyph glyph-name="question" unicode="?" horiz-adv-x="556" 
d="M216 278q0 30 8 51t27 39q28 27 51.5 47t40.5 37.5t26.5 33t9.5 32.5q0 33 -20.5 51.5t-51.5 18.5q-47 0 -71.5 -26t-27.5 -63l-154 10q11 106 78 161.5t172 55.5q46 0 86.5 -12.5t71.5 -37.5t49 -62t18 -85q0 -29 -6 -52.5t-20.5 -46.5t-38 -46.5t-59.5 -51.5
q-23 -18 -31 -35t-8 -34v-29h-150v44zM199 86q0 19 7 36t19.5 29.5t29.5 19.5t36 7t36 -7t29.5 -19.5t19.5 -29.5t7 -36t-7 -36t-19.5 -29.5t-29.5 -19.5t-36 -7t-36 7t-29.5 19.5t-19.5 29.5t-7 36z" />
    <glyph glyph-name="at" unicode="@" horiz-adv-x="800" 
d="M475 364q0 40 -18 66t-56 26q-46 0 -73 -36t-27 -88q0 -16 3 -32t10.5 -28.5t21 -20.5t34.5 -8q31 0 51.5 11t32.5 28.5t16.5 39t4.5 42.5zM568 337q-3 -14 -6 -33t-3 -33q0 -11 5.5 -19.5t21.5 -8.5t31.5 8.5t27.5 27t19.5 46.5t7.5 67q0 60 -19.5 105.5t-54 76.5
t-82.5 46.5t-105 15.5q-62 0 -113 -21t-87.5 -59t-56.5 -90t-20 -113q0 -66 22 -118t61.5 -88t93.5 -55.5t117 -19.5q57 0 104.5 16t84.5 45h110q-54 -74 -134.5 -112.5t-172.5 -38.5q-80 0 -150.5 27.5t-123.5 76.5t-83.5 117.5t-30.5 149.5q0 80 30 148t82 118t121.5 78.5
t148.5 28.5q66 0 129.5 -21.5t113.5 -63.5t80.5 -103.5t30.5 -140.5q0 -53 -12.5 -92t-32 -66t-44 -44t-49 -26t-47 -12.5t-37.5 -3.5q-42 0 -60 17t-19 37h-2q-20 -20 -50 -37t-78 -17q-32 0 -58.5 12.5t-45.5 34.5t-29.5 53t-10.5 68q0 44 14 84.5t39.5 72t62.5 50
t84 18.5q40 0 66.5 -13t41.5 -44h2l8 45h94z" />
    <glyph glyph-name="A" unicode="A" horiz-adv-x="741" 
d="M305 708h129l308 -708h-176l-61 150h-275l-59 -150h-172zM365 502l-86 -220h173z" />
    <glyph glyph-name="B" unicode="B" horiz-adv-x="648" 
d="M72 708h264q46 0 92.5 -6.5t83.5 -26t60 -54.5t23 -93q0 -60 -33.5 -99.5t-88.5 -56.5v-2q35 -5 63.5 -19.5t49 -37t31.5 -52.5t11 -64q0 -56 -24 -93.5t-62 -60.5t-85.5 -33t-94.5 -10h-290v708zM228 425h113q18 0 35.5 4t31.5 13t22.5 24t8.5 36q0 22 -9.5 36.5
t-24.5 22.5t-34 11.5t-37 3.5h-106v-151zM228 132h140q18 0 36.5 4t33.5 14t24.5 26t9.5 39q0 25 -12.5 40.5t-31.5 23.5t-41 11t-41 3h-118v-161z" />
    <glyph glyph-name="C" unicode="C" horiz-adv-x="685" 
d="M535 524q-23 28 -56.5 43t-77.5 15t-81.5 -17t-65 -47.5t-43 -72.5t-15.5 -91q0 -50 15.5 -91.5t42.5 -72t63.5 -47.5t78.5 -17q48 0 85 20t61 56l130 -97q-45 -63 -114 -93t-142 -30q-83 0 -153 26t-121 74.5t-79.5 117.5t-28.5 154t28.5 154t79.5 117.5t121 74.5
t153 26q30 0 62.5 -5.5t64 -17.5t60.5 -32t52 -49z" />
    <glyph glyph-name="D" unicode="D" horiz-adv-x="759" 
d="M72 708h234q85 0 161.5 -19t133.5 -61.5t90.5 -110.5t33.5 -165q0 -86 -32.5 -151.5t-87.5 -110t-127 -67.5t-151 -23h-255v708zM228 144h81q54 0 100.5 11t80.5 36.5t53.5 67t19.5 101.5q0 52 -19.5 90.5t-52.5 63.5t-77.5 37.5t-93.5 12.5h-92v-420z" />
    <glyph glyph-name="E" unicode="E" horiz-adv-x="630" 
d="M78 708h481v-144h-325v-132h307v-144h-307v-144h343v-144h-499v708z" />
    <glyph glyph-name="F" unicode="F" horiz-adv-x="593" 
d="M78 708h475v-144h-319v-144h295v-144h-295v-276h-156v708z" />
    <glyph glyph-name="G" unicode="G" horiz-adv-x="778" 
d="M713 50q-69 -36 -144 -52t-153 -16q-83 0 -153 26t-121 74.5t-79.5 117.5t-28.5 154t28.5 154t79.5 117.5t121 74.5t153 26q85 0 156.5 -20.5t125.5 -70.5l-110 -120q-32 33 -72 50t-100 17q-50 0 -90.5 -17t-69.5 -47.5t-44.5 -72.5t-15.5 -91q0 -50 15.5 -91.5
t44.5 -72t69.5 -47.5t90.5 -17q51 0 88 11.5t59 23.5v115h-127v144h277v-370z" />
    <glyph glyph-name="H" unicode="H" horiz-adv-x="759" 
d="M72 708h156v-264h303v264h156v-708h-156v306h-303v-306h-156v708z" />
    <glyph glyph-name="I" unicode="I" horiz-adv-x="296" 
d="M70 708h156v-708h-156v708z" />
    <glyph glyph-name="J" unicode="J" horiz-adv-x="500" 
d="M438 237q0 -49 -8.5 -95t-32.5 -81.5t-68.5 -57t-116.5 -21.5q-84 0 -142 40t-75 125l143 35q3 -26 23.5 -44t46.5 -18q27 0 42 13.5t22 33.5t8.5 43.5t1.5 43.5v454h156v-471z" />
    <glyph glyph-name="K" unicode="K" horiz-adv-x="722" 
d="M78 708h156v-294l275 294h204l-315 -329l342 -379h-218l-288 336v-336h-156v708z" />
    <glyph glyph-name="L" unicode="L" horiz-adv-x="537" 
d="M78 708h156v-564h289v-144h-445v708z" />
    <glyph glyph-name="M" unicode="M" horiz-adv-x="944" 
d="M72 708h236l163 -462h2l164 462h235v-708h-156v543h-2l-186 -543h-119l-179 543h-2v-543h-156v708z" />
    <glyph glyph-name="N" unicode="N" horiz-adv-x="815" 
d="M72 708h212l301 -492h2v492h156v-708h-204l-309 504h-2v-504h-156v708z" />
    <glyph glyph-name="O" unicode="O" horiz-adv-x="832" 
d="M34 354q0 85 28.5 154t79.5 117.5t121 74.5t153 26t153 -26t121 -74.5t79.5 -117.5t28.5 -154t-28.5 -154t-79.5 -117.5t-121 -74.5t-153 -26t-153 26t-121 74.5t-79.5 117.5t-28.5 154zM196 354q0 -50 15.5 -91.5t44.5 -72t69.5 -47.5t90.5 -17t90.5 17t69.5 47.5
t44.5 72t15.5 91.5q0 49 -15.5 91t-44.5 72.5t-69.5 47.5t-90.5 17t-90.5 -17t-69.5 -47.5t-44.5 -72.5t-15.5 -91z" />
    <glyph glyph-name="P" unicode="P" horiz-adv-x="630" 
d="M72 708h263q55 0 104 -10t85.5 -34.5t58 -66t21.5 -104.5q0 -62 -20 -104t-55 -67t-83 -35.5t-104 -10.5h-114v-276h-156v708zM228 408h104q21 0 40.5 4t35 13.5t25 26t9.5 41.5q0 27 -12.5 43.5t-32 25.5t-43.5 11.5t-46 2.5h-80v-168z" />
    <glyph glyph-name="Q" unicode="Q" horiz-adv-x="852" 
d="M847 0h-429q-83 0 -153.5 24.5t-121.5 71.5t-80 114t-29 153q0 80 29.5 147t80.5 115t120 74.5t148 26.5t148 -27t120 -75t80.5 -114.5t29.5 -146.5q0 -38 -8.5 -74t-25.5 -68t-44 -57.5t-63 -41.5v-2h198v-120zM196 363q0 -46 17 -86t46.5 -69.5t68.5 -46.5t84 -17
t84 17t68.5 46.5t46.5 69.5t17 86t-17 86t-46.5 69.5t-68.5 46.5t-84 17t-84 -17t-68.5 -46.5t-46.5 -69.5t-17 -86z" />
    <glyph glyph-name="R" unicode="R" horiz-adv-x="648" 
d="M72 708h274q54 0 102.5 -10.5t85 -35t58 -66t21.5 -103.5q0 -75 -39 -127.5t-114 -66.5l180 -299h-187l-148 283h-77v-283h-156v708zM228 415h92q21 0 44.5 1.5t42.5 9t31.5 23.5t12.5 45q0 27 -11 43t-28 24.5t-39 11.5t-43 3h-102v-161z" />
    <glyph glyph-name="S" unicode="S" 
d="M422 535q-19 24 -51.5 35.5t-61.5 11.5q-17 0 -35 -4t-34 -12.5t-26 -22.5t-10 -34q0 -32 24 -49t60.5 -29t78.5 -24t78.5 -34t60.5 -59t24 -99q0 -59 -22 -103t-59.5 -73t-87 -43t-104.5 -14q-69 0 -128 21t-110 68l111 122q24 -32 60.5 -49.5t75.5 -17.5q19 0 38.5 4.5
t35 13.5t25 23t9.5 33q0 32 -24.5 50.5t-61.5 31.5t-80 26t-80 35t-61.5 58t-24.5 95q0 57 22.5 100t60 72t86.5 43.5t101 14.5q60 0 116 -17t101 -57z" />
    <glyph glyph-name="T" unicode="T" 
d="M209 570h-202v138h560v-138h-202v-570h-156v570z" />
    <glyph glyph-name="U" unicode="U" horiz-adv-x="741" 
d="M669 273q0 -63 -19 -116t-56.5 -92t-93.5 -61t-129 -22q-74 0 -130 22t-93.5 61t-56.5 92t-19 116v435h156v-429q0 -33 10.5 -61t29.5 -48.5t45.5 -32t57.5 -11.5t57 11.5t45 32t29.5 48.5t10.5 61v429h156v-435z" />
    <glyph glyph-name="V" unicode="V" horiz-adv-x="704" 
d="M2 708h178l175 -464h2l178 464h167l-292 -708h-125z" />
    <glyph glyph-name="W" unicode="W" horiz-adv-x="1000" 
d="M-2 708h170l113 -454h2l148 454h145l147 -466h2l119 466h158l-207 -708h-139l-156 490h-2l-156 -490h-134z" />
    <glyph glyph-name="X" unicode="X" horiz-adv-x="722" 
d="M248 370l-234 338h196l151 -248l145 248h189l-229 -335l256 -373h-196l-173 285l-168 -285h-185z" />
    <glyph glyph-name="Y" unicode="Y" horiz-adv-x="648" 
d="M246 302l-266 406h194l150 -265l159 265h185l-266 -406v-302h-156v302z" />
    <glyph glyph-name="Z" unicode="Z" horiz-adv-x="630" 
d="M35 144l359 426h-346v138h535v-138l-352 -426h364v-144h-560v144z" />
    <glyph glyph-name="bracketleft" unicode="[" horiz-adv-x="296" 
d="M276 642h-90v-708h90v-90h-210v888h210v-90z" />
    <glyph glyph-name="backslash" unicode="\" horiz-adv-x="407" 
d="M297 -53l-300 779l114 35l299 -779z" />
    <glyph glyph-name="bracketright" unicode="]" horiz-adv-x="296" 
d="M20 -66h90v708h-90v90h210v-888h-210v90z" />
    <glyph glyph-name="asciicircum" unicode="^" horiz-adv-x="666" 
d="M260 708h146l180 -365h-142l-111 238l-112 -238h-141z" />
    <glyph glyph-name="underscore" unicode="_" horiz-adv-x="500" 
d="M0 -125v50h500v-50h-500z" />
    <glyph glyph-name="grave" unicode="`" horiz-adv-x="260" 
d="M232 564h-132l-173 144h204z" />
    <glyph glyph-name="a" unicode="a" horiz-adv-x="537" 
d="M358 61h-2q-25 -39 -66.5 -56t-87.5 -17q-34 0 -65.5 9.5t-55.5 28.5t-38 47t-14 65q0 42 15.5 71t42 48t60.5 29.5t70.5 15.5t73 6t67.5 1q0 40 -28.5 63.5t-67.5 23.5q-37 0 -67.5 -15.5t-54.5 -42.5l-80 82q42 39 98 58.5t116 19.5q66 0 108.5 -16.5t68 -48.5
t35.5 -78.5t10 -107.5v-247h-138v61zM321 213q-17 0 -42.5 -1.5t-49 -8.5t-40 -21t-16.5 -39q0 -27 23 -40t48 -13q22 0 42.5 6t36.5 17t25.5 28t9.5 40v32h-37z" />
    <glyph glyph-name="b" unicode="b" horiz-adv-x="630" 
d="M67 756h150v-322h2q26 35 66.5 49.5t87.5 14.5q52 0 93 -21.5t69.5 -57.5t44 -82.5t15.5 -97.5q0 -55 -17 -101t-48.5 -79.5t-75.5 -52t-98 -18.5q-26 0 -49 7t-42.5 18t-34 24.5t-23.5 26.5h-2v-64h-138v756zM205 243q0 -55 31.5 -89t88.5 -34t88.5 34t31.5 89t-31.5 89
t-88.5 34t-88.5 -34t-31.5 -89z" />
    <glyph glyph-name="c" unicode="c" horiz-adv-x="482" 
d="M382 329q-11 16 -31 26.5t-43 10.5q-57 0 -88.5 -34t-31.5 -89t31.5 -89t88.5 -34q25 0 43 11t31 26l99 -104q-35 -36 -82.5 -50.5t-90.5 -14.5q-56 0 -105.5 18t-86 51.5t-57.5 80.5t-21 105t21 105t57.5 80.5t86 51.5t105.5 18q43 0 90.5 -14.5t82.5 -50.5z" />
    <glyph glyph-name="d" unicode="d" horiz-adv-x="630" 
d="M563 0h-138v64h-2q-9 -13 -23.5 -26.5t-34 -24.5t-43 -18t-48.5 -7q-54 0 -98 18.5t-75.5 52t-48.5 79.5t-17 101q0 51 15.5 97.5t44 82.5t69.5 57.5t93 21.5q47 0 87.5 -14.5t66.5 -49.5h2v322h150v-756zM425 243q0 55 -31.5 89t-88.5 34t-88.5 -34t-31.5 -89t31.5 -89
t88.5 -34t88.5 34t31.5 89z" />
    <glyph glyph-name="e" unicode="e" 
d="M513 84q-36 -46 -91 -71t-114 -25q-56 0 -105.5 18t-86 51.5t-57.5 80.5t-21 105t21 105t57.5 80.5t86 51.5t105.5 18q52 0 94.5 -18t72 -51.5t45.5 -80.5t16 -105v-47h-348q9 -43 39 -68.5t74 -25.5q37 0 62.5 16.5t44.5 42.5zM386 298q1 38 -25 65t-67 27q-25 0 -44 -8
t-32.5 -20.5t-21 -29t-8.5 -34.5h198z" />
    <glyph glyph-name="f" unicode="f" horiz-adv-x="370" 
d="M105 366h-99v120h99v86q0 40 7 75.5t27 62.5t57.5 42.5t98.5 15.5q23 0 45 -2t43 -7l-7 -127q-13 5 -24 7.5t-25 2.5q-36 0 -54 -15.5t-18 -63.5v-77h111v-120h-111v-366h-150v366z" />
    <glyph glyph-name="g" unicode="g" horiz-adv-x="630" 
d="M563 41q0 -138 -69.5 -209.5t-211.5 -71.5q-65 0 -128 14.5t-116 56.5l83 124q35 -29 73.5 -46t84.5 -17q69 0 101.5 33.5t32.5 85.5v47h-2q-26 -35 -64.5 -49.5t-72.5 -14.5q-54 0 -98 18.5t-75.5 52t-48.5 79.5t-17 101q0 48 15.5 94t44 81t69.5 56.5t93 21.5
q32 0 58.5 -7t47.5 -18t36 -24.5t24 -26.5h2v64h138v-445zM185 246q0 -24 9 -45.5t25.5 -38t38 -26.5t47.5 -10q25 0 47 10t38.5 26.5t25.5 38t9 45.5t-9 45.5t-25.5 38t-38.5 26.5t-47 10q-26 0 -47.5 -10t-38 -26.5t-25.5 -38t-9 -45.5z" />
    <glyph glyph-name="h" unicode="h" 
d="M203 756v-336h2q5 14 17 28t29 25t40 18t50 7q57 0 92 -17.5t54.5 -48.5t26.5 -73t7 -91v-268h-150v238q0 21 -1.5 43.5t-9 41.5t-23 31t-44.5 12t-47 -10.5t-27.5 -28t-12.5 -39.5t-3 -46v-242h-150v756h150z" />
    <glyph glyph-name="i" unicode="i" horiz-adv-x="260" 
d="M55 486h150v-486h-150v486zM43 639q0 36 25.5 61.5t61.5 25.5t61.5 -25.5t25.5 -61.5t-25.5 -61.5t-61.5 -25.5t-61.5 25.5t-25.5 61.5z" />
    <glyph glyph-name="j" unicode="j" horiz-adv-x="260" 
d="M205 -36q0 -47 -9 -84.5t-30 -64t-55.5 -41t-85.5 -14.5q-17 0 -35 1.5t-35 6.5l8 133q18 -9 39 -9q19 0 30 10t16 25t6 32t1 31v496h150v-522zM43 639q0 36 25.5 61.5t61.5 25.5t61.5 -25.5t25.5 -61.5t-25.5 -61.5t-61.5 -25.5t-61.5 25.5t-25.5 61.5z" />
    <glyph glyph-name="k" unicode="k" horiz-adv-x="556" 
d="M53 756h150v-462l166 192h184l-193 -219l198 -267h-189l-164 246h-2v-246h-150v756z" />
    <glyph glyph-name="l" unicode="l" horiz-adv-x="260" 
d="M55 756h150v-756h-150v756z" />
    <glyph glyph-name="m" unicode="m" horiz-adv-x="870" 
d="M53 486h144v-66h2q7 14 20 28t31 25t41 18t50 7q51 0 90.5 -21t59.5 -66q26 47 63 67t91 20q49 0 82.5 -16.5t53 -45t28 -67t8.5 -82.5v-287h-150v283q0 34 -14.5 58.5t-51.5 24.5q-26 0 -43.5 -8.5t-28 -23.5t-15 -35t-4.5 -42v-257h-150v257q0 13 -1 32t-7 36t-19.5 29
t-39.5 12q-29 0 -47 -10.5t-27.5 -28t-12.5 -39.5t-3 -46v-242h-150v486z" />
    <glyph glyph-name="n" unicode="n" 
d="M53 486h144v-66h2q7 14 20 28t31 25t41 18t50 7q57 0 92 -17.5t54.5 -48.5t26.5 -73t7 -91v-268h-150v238q0 21 -1.5 43.5t-9 41.5t-23 31t-44.5 12t-47 -10.5t-27.5 -28t-12.5 -39.5t-3 -46v-242h-150v486z" />
    <glyph glyph-name="o" unicode="o" horiz-adv-x="610" 
d="M35 243q0 58 21 105t57.5 80.5t86 51.5t105.5 18t105.5 -18t86 -51.5t57.5 -80.5t21 -105t-21 -105t-57.5 -80.5t-86 -51.5t-105.5 -18t-105.5 18t-86 51.5t-57.5 80.5t-21 105zM185 243q0 -55 31.5 -89t88.5 -34t88.5 34t31.5 89t-31.5 89t-88.5 34t-88.5 -34t-31.5 -89
z" />
    <glyph glyph-name="p" unicode="p" horiz-adv-x="630" 
d="M67 486h138v-64h2q9 13 23.5 26.5t34 24.5t42.5 18t49 7q54 0 98 -18.5t75.5 -52t48.5 -79.5t17 -101q0 -51 -15.5 -97.5t-44 -82.5t-69.5 -57.5t-93 -21.5q-47 0 -87.5 14.5t-66.5 49.5h-2v-280h-150v714zM205 243q0 -55 31.5 -89t88.5 -34t88.5 34t31.5 89t-31.5 89
t-88.5 34t-88.5 -34t-31.5 -89z" />
    <glyph glyph-name="q" unicode="q" horiz-adv-x="630" 
d="M563 -228h-150v280h-2q-26 -35 -66.5 -49.5t-87.5 -14.5q-52 0 -93 21.5t-69.5 57.5t-44 82.5t-15.5 97.5q0 55 17 101t48.5 79.5t75.5 52t98 18.5q25 0 48.5 -7t43 -18t34 -24.5t23.5 -26.5h2v64h138v-714zM425 243q0 55 -31.5 89t-88.5 34t-88.5 -34t-31.5 -89
t31.5 -89t88.5 -34t88.5 34t31.5 89z" />
    <glyph glyph-name="r" unicode="r" horiz-adv-x="407" 
d="M53 486h150v-78h2q24 45 57 67.5t83 22.5q13 0 26 -1t24 -4v-137q-16 5 -31.5 7.5t-32.5 2.5q-43 0 -68 -12t-38.5 -33.5t-17.5 -51.5t-4 -66v-203h-150v486z" />
    <glyph glyph-name="s" unicode="s" horiz-adv-x="463" 
d="M328 343q-33 41 -87 41q-19 0 -37 -9t-18 -31q0 -18 18.5 -26.5t47 -15t61 -14t61 -23.5t47 -43.5t18.5 -73.5q0 -47 -20.5 -77.5t-52.5 -49t-72 -26t-79 -7.5q-51 0 -103 14.5t-88 51.5l91 101q21 -26 46.5 -39.5t59.5 -13.5q26 0 47 7.5t21 27.5q0 19 -18.5 28.5
t-47 16t-61 14t-61 22.5t-47 42.5t-18.5 73.5q0 43 17.5 74t46 51t65.5 29.5t75 9.5q48 0 97 -14t83 -50z" />
    <glyph glyph-name="t" unicode="t" horiz-adv-x="407" 
d="M384 366h-132v-162q0 -20 2 -36.5t9 -28.5t21.5 -18.5t38.5 -6.5q12 0 31.5 2.5t29.5 11.5v-125q-25 -9 -52 -12t-53 -3q-38 0 -70 8t-56 25.5t-37.5 45.5t-13.5 68v231h-96v120h96v144h150v-144h132v-120z" />
    <glyph glyph-name="u" unicode="u" 
d="M521 0h-144v66h-2q-8 -14 -20.5 -28t-30.5 -25t-41 -18t-50 -7q-57 0 -92.5 17.5t-55 48.5t-26 73t-6.5 91v268h150v-238q0 -21 1.5 -43.5t9 -41.5t23 -31t44.5 -12t47 10.5t27.5 28t12.5 39.5t3 46v242h150v-486z" />
    <glyph glyph-name="v" unicode="v" horiz-adv-x="556" 
d="M2 486h162l123 -330h2l114 330h151l-192 -486h-159z" />
    <glyph glyph-name="w" unicode="w" horiz-adv-x="833" 
d="M-5 486h160l99 -305h2l83 305h164l90 -305h2l91 305h152l-173 -486h-148l-101 323h-2l-90 -323h-151z" />
    <glyph glyph-name="x" unicode="x" horiz-adv-x="556" 
d="M184 260l-162 226h177l86 -132l83 132h167l-158 -226l187 -260h-177l-106 162l-114 -162h-175z" />
    <glyph glyph-name="y" unicode="y" horiz-adv-x="556" 
d="M333 -79q-15 -39 -29 -69t-35.5 -50.5t-54.5 -31t-87 -10.5q-58 0 -112 18l20 123q34 -15 70 -15q25 0 41 5.5t26.5 16t17.5 25.5t15 35l11 28l-213 490h162l125 -321h2l107 321h154z" />
    <glyph glyph-name="z" unicode="z" horiz-adv-x="500" 
d="M34 150l252 216h-246v120h420v-144l-264 -222h270v-120h-432v150z" />
    <glyph glyph-name="braceleft" unicode="{" horiz-adv-x="370" 
d="M356 -156h-105q-27 0 -50.5 8t-41 26t-27.5 45.5t-10 66.5v172q0 23 -13.5 37t-31.5 21t-36 9t-27 2v114q9 0 27 2t36 9t31.5 21t13.5 37v173q0 39 9.5 66.5t27 45t41 25.5t51.5 8h105v-114h-49q-23 0 -36 -6t-19.5 -15.5t-8 -21t-1.5 -21.5v-161q0 -35 -10 -55
t-24.5 -30.5t-32 -14t-33.5 -4.5v-2q16 -1 33.5 -4t32 -13.5t24.5 -30.5t10 -55v-162q0 -10 1.5 -21.5t8 -21t19.5 -15.5t36 -6h49v-114z" />
    <glyph glyph-name="bar" unicode="|" horiz-adv-x="222" 
d="M174 750v-1000h-126v1000h126z" />
    <glyph glyph-name="braceright" unicode="}" horiz-adv-x="370" 
d="M14 732h108q25 0 48 -8t40.5 -26t27.5 -45.5t10 -66.5v-172q0 -23 13 -37t30.5 -21t35.5 -9t29 -2v-114q-11 0 -29 -2t-35.5 -9t-30.5 -21t-13 -37v-173q0 -39 -10 -66.5t-27 -45t-40.5 -25.5t-51.5 -8h-105v114h49q23 0 36 6t19.5 15.5t8 21t1.5 21.5v161q0 35 10 55
t24.5 30.5t32 13.5t33.5 5v2q-16 1 -33.5 4t-32 13.5t-24.5 30.5t-10 55v162q0 10 -1.5 21.5t-8 21t-19.5 15.5t-36 6h-49v114z" />
    <glyph glyph-name="asciitilde" unicode="~" horiz-adv-x="666" 
d="M564 292q-8 -16 -19.5 -31.5t-26.5 -27.5t-34.5 -19.5t-44.5 -7.5q-26 0 -54 9.5t-57 22.5q-28 12 -55 24t-47 12q-15 0 -27.5 -6.5t-23 -16t-19.5 -21.5l-18 -24l-36 108q8 16 19.5 31.5t26.5 27.5t34.5 19.5t44.5 7.5q26 0 54 -9.5t57 -22.5q28 -12 55 -24t47 -12
q15 0 27.5 6.5t23 16t19.5 21.5l18 24z" />
    <glyph glyph-name="Euro" unicode="&#x20ac;" horiz-adv-x="592" 
d="M578 75q-33 -39 -91 -63t-125 -24q-112 0 -180 59.5t-91 174.5h-81l28 90h42q-1 5 -1 9v9v19q0 13 0.5 25t1.5 24h-68l31 92h52q30 115 108 172.5t199 57.5q17 0 39.5 -2.5t45 -6t41.5 -9t29 -11.5l-46 -130q-15 10 -44.5 17.5t-64.5 7.5q-51 0 -89 -22.5t-60 -73.5h235
l-30 -92h-226q-1 -11 -1.5 -22t-0.5 -23v-21v-10t1 -10h204l-29 -90h-160q15 -49 46.5 -76.5t82.5 -27.5q42 0 70.5 16t49.5 42z" />
    <glyph glyph-name="quotesinglbase" unicode="&#x201a;" horiz-adv-x="296" 
d="M167 -126h-128l74 282h144z" />
    <glyph glyph-name="florin" unicode="&#x192;" horiz-adv-x="592" 
d="M496 332h-146l-58 -292q-8 -41 -23 -74t-39 -56.5t-58 -36t-81 -12.5q-28 0 -56.5 6.5t-54.5 17.5l52 119q11 -6 22.5 -8.5t23.5 -2.5q32 0 48 21.5t27 73.5l50 244h-114v102h134l18 91q11 55 26 92.5t38 60.5t55.5 32.5t78.5 9.5q35 0 66.5 -7.5t63.5 -22.5l-53 -113
q-25 11 -52 11q-36 0 -53 -19.5t-26 -63.5l-15 -71h126v-102z" />
    <glyph glyph-name="quotedblbase" unicode="&#x201e;" horiz-adv-x="520" 
d="M386 -126h-128l74 282h144zM172 -126h-128l74 282h144z" />
    <glyph glyph-name="ellipsis" unicode="&#x2026;" horiz-adv-x="1000" 
d="M75 86q0 19 7 36t19.5 29.5t29.5 19.5t36 7t36 -7t29.5 -19.5t19.5 -29.5t7 -36t-7 -36t-19.5 -29.5t-29.5 -19.5t-36 -7t-36 7t-29.5 19.5t-19.5 29.5t-7 36zM408 86q0 19 7 36t19.5 29.5t29.5 19.5t36 7t36 -7t29.5 -19.5t19.5 -29.5t7 -36t-7 -36t-19.5 -29.5
t-29.5 -19.5t-36 -7t-36 7t-29.5 19.5t-19.5 29.5t-7 36zM741 86q0 19 7 36t19.5 29.5t29.5 19.5t36 7t36 -7t29.5 -19.5t19.5 -29.5t7 -36t-7 -36t-19.5 -29.5t-29.5 -19.5t-36 -7t-36 7t-29.5 19.5t-19.5 29.5t-7 36z" />
    <glyph glyph-name="dagger" unicode="&#x2020;" horiz-adv-x="592" 
d="M224 372h-190v126h190v210h138v-210h196v-126h-196v-505h-138v505z" />
    <glyph glyph-name="daggerdbl" unicode="&#x2021;" horiz-adv-x="592" 
d="M227 47h-193v120h193v241h-193v120h193v180h138v-180h193v-120h-193v-241h193v-120h-193v-180h-138v180z" />
    <glyph glyph-name="circumflex" unicode="&#x2c6;" horiz-adv-x="260" 
d="M191 564l-63 78l-62 -78h-135l119 144h163l116 -144h-138z" />
    <glyph glyph-name="perthousand" unicode="&#x2030;" horiz-adv-x="1167" 
d="M395 165q0 36 13.5 68t37.5 56t56 38t69 14q36 0 68 -14t56 -38t38 -56t14 -68t-14 -68.5t-38 -56.5t-56 -38t-68 -14q-37 0 -69 14t-56 38t-37.5 56.5t-13.5 68.5zM782 165q0 36 14 68t38 56t56 38t68 14t68.5 -14t56.5 -38t38 -56t14 -68t-14 -68.5t-38 -56.5
t-56.5 -38t-68.5 -14t-68 14t-56 38t-38 56.5t-14 68.5zM32 544q0 36 13.5 68t37.5 56t56 38t69 14q36 0 68.5 -14t56.5 -38t38 -56t14 -68t-14 -68.5t-38 -56.5t-56.5 -38t-68.5 -14q-37 0 -69 14t-56 38t-37.5 56.5t-13.5 68.5zM128 544q0 -33 23.5 -57t56.5 -24t57 24
t24 57t-24 56.5t-57 23.5t-56.5 -23.5t-23.5 -56.5zM491 165q0 -33 23.5 -57t56.5 -24t56.5 24t23.5 57t-23.5 56.5t-56.5 23.5t-56.5 -23.5t-23.5 -56.5zM878 165q0 -33 23.5 -57t56.5 -24t57 24t24 57t-24 56.5t-57 23.5t-56.5 -23.5t-23.5 -56.5zM552 740l84 -47
l-413 -725l-76 43z" />
    <glyph glyph-name="Scaron" unicode="&#x160;" 
d="M422 535q-19 24 -51.5 35.5t-61.5 11.5q-17 0 -35 -4t-34 -12.5t-26 -22.5t-10 -34q0 -32 24 -49t60.5 -29t78.5 -24t78.5 -34t60.5 -59t24 -99q0 -59 -22 -103t-59.5 -73t-87 -43t-104.5 -14q-69 0 -128 21t-110 68l111 122q24 -32 60.5 -49.5t75.5 -17.5q19 0 38.5 4.5
t35 13.5t25 23t9.5 33q0 32 -24.5 50.5t-61.5 31.5t-80 26t-80 35t-61.5 58t-24.5 95q0 57 22.5 100t60 72t86.5 43.5t101 14.5q60 0 116 -17t101 -57zM222 931l63 -78l62 78h135l-119 -144h-163l-116 144h138z" />
    <glyph glyph-name="guilsinglleft" unicode="&#x2039;" horiz-adv-x="296" 
d="M152 249l116 -173l-91 -61l-159 234l159 234l91 -61z" />
    <glyph glyph-name="OE" unicode="&#x152;" horiz-adv-x="1018" 
d="M665 432h264v-144h-264v-144h300v-144h-531q-71 0 -142.5 20.5t-128.5 63.5t-93 110t-36 160q0 86 30.5 152t83.5 111t124.5 68t153.5 23h527v-144h-288v-132zM509 564h-51q-58 0 -106 -13t-82.5 -39.5t-54 -66t-19.5 -91.5q0 -53 19.5 -92t54 -65.5t82.5 -39.5t106 -13
h51v420z" />
    <glyph glyph-name="Zcaron" unicode="&#x17d;" horiz-adv-x="630" 
d="M35 144l359 426h-346v138h535v-138l-352 -426h364v-144h-560v144zM250 931l63 -78l62 78h135l-119 -144h-163l-116 144h138z" />
    <glyph glyph-name="quoteleft" unicode="&#x2018;" horiz-adv-x="296" 
d="M129 708h128l-74 -282h-144z" />
    <glyph glyph-name="quoteright" unicode="&#x2019;" horiz-adv-x="296" 
d="M167 426h-128l74 282h144z" />
    <glyph glyph-name="quotedblleft" unicode="&#x201c;" horiz-adv-x="520" 
d="M134 708h128l-74 -282h-144zM348 708h128l-74 -282h-144z" />
    <glyph glyph-name="quotedblright" unicode="&#x201d;" horiz-adv-x="520" 
d="M386 426h-128l74 282h144zM172 426h-128l74 282h144z" />
    <glyph glyph-name="bullet" unicode="&#x2022;" horiz-adv-x="500" 
d="M73 354q0 37 14 69t38 56t56 38t69 14t69 -14t56 -38t38 -56t14 -69t-14 -69t-38 -56t-56 -38t-69 -14t-69 14t-56 38t-38 56t-14 69z" />
    <glyph glyph-name="endash" unicode="&#x2013;" horiz-adv-x="500" 
d="M0 309h500v-120h-500v120z" />
    <glyph glyph-name="emdash" unicode="&#x2014;" horiz-adv-x="1000" 
d="M0 309h1000v-120h-1000v120z" />
    <glyph glyph-name="tilde" unicode="&#x2dc;" horiz-adv-x="260" 
d="M-66 570q4 25 14 50t25.5 44.5t37.5 31.5t50 12q25 0 45 -6t42 -15q14 -5 27.5 -10t28.5 -5q17 0 27 10.5t17 25.5h78q-5 -29 -14 -54t-24.5 -43.5t-38 -29.5t-53.5 -11q-22 0 -41.5 6.5t-36.5 14.5t-32.5 14.5t-30.5 6.5q-17 0 -27 -14t-15 -28h-79z" />
    <glyph glyph-name="trademark" unicode="&#x2122;" horiz-adv-x="1000" 
d="M159 612h-119v96h346v-96h-119v-316h-108v316zM474 708h145l98 -268l98 268h145v-412h-108v268h-2l-98 -268h-70l-98 268h-2v-268h-108v412z" />
    <glyph glyph-name="scaron" unicode="&#x161;" horiz-adv-x="463" 
d="M328 343q-33 41 -87 41q-19 0 -37 -9t-18 -31q0 -18 18.5 -26.5t47 -15t61 -14t61 -23.5t47 -43.5t18.5 -73.5q0 -47 -20.5 -77.5t-52.5 -49t-72 -26t-79 -7.5q-51 0 -103 14.5t-88 51.5l91 101q21 -26 46.5 -39.5t59.5 -13.5q26 0 47 7.5t21 27.5q0 19 -18.5 28.5
t-47 16t-61 14t-61 22.5t-47 42.5t-18.5 73.5q0 43 17.5 74t46 51t65.5 29.5t75 9.5q48 0 97 -14t83 -50zM167 708l63 -78l62 78h135l-119 -144h-163l-116 144h138z" />
    <glyph glyph-name="guilsinglright" unicode="&#x203a;" horiz-adv-x="296" 
d="M144 249l-116 173l91 61l159 -234l-159 -234l-91 61z" />
    <glyph glyph-name="oe" unicode="&#x153;" horiz-adv-x="944" 
d="M883 84q-36 -46 -91 -71t-114 -25q-63 0 -109 15.5t-81 53.5q-38 -39 -84.5 -54t-97.5 -15q-57 0 -106 18t-86 51.5t-58 80.5t-21 105t21 105t58 80.5t86 51.5t106 18q54 0 100 -18t82 -55q32 34 78 53.5t112 19.5q52 0 94.5 -18t72 -51.5t45.5 -80.5t16 -105v-47h-348
q9 -43 39 -68.5t74 -25.5q37 0 62.5 16.5t44.5 42.5zM306 366q-57 0 -89 -34t-32 -89t32 -89t89 -34t88.5 34t31.5 89t-31.5 89t-88.5 34zM756 298q1 38 -25 65t-67 27q-25 0 -44 -8t-32.5 -20.5t-21 -29t-8.5 -34.5h198z" />
    <glyph glyph-name="zcaron" unicode="&#x17e;" horiz-adv-x="500" 
d="M34 150l252 216h-246v120h420v-144l-264 -222h270v-120h-432v150zM185 708l63 -78l62 78h135l-119 -144h-163l-116 144h138z" />
    <glyph glyph-name="Ydieresis" unicode="&#x178;" horiz-adv-x="648" 
d="M246 302l-266 406h194l150 -265l159 265h185l-266 -406v-302h-156v302zM219 780q-18 0 -33 7t-26 19t-17.5 27.5t-6.5 32.5q0 16 6.5 31t17.5 26t25.5 18t31.5 7q35 0 61 -23t26 -59t-24 -61t-61 -25zM427 780q-18 0 -33 7t-26 19t-17.5 27.5t-6.5 32.5q0 16 6.5 31
t17.5 26t25.5 18t31.5 7q35 0 61 -23t26 -59t-24 -61t-61 -25z" />
    <glyph glyph-name="uni00A0" unicode="&#xa0;" horiz-adv-x="296" 
 />
    <glyph glyph-name="exclamdown" unicode="&#xa1;" horiz-adv-x="444" 
d="M147 252h150v-474h-150v474zM314 400q0 -19 -7 -36t-19.5 -29.5t-29.5 -19.5t-36 -7t-36 7t-29.5 19.5t-19.5 29.5t-7 36t7 36t19.5 29.5t29.5 19.5t36 7t36 -7t29.5 -19.5t19.5 -29.5t7 -36z" />
    <glyph glyph-name="cent" unicode="&#xa2;" horiz-adv-x="592" 
d="M310 -12q-53 3 -96.5 24t-74 55t-47 79t-16.5 97q0 53 16.5 97t47 77t74 54t96.5 27v66h60v-66q51 0 92 -14.5t80 -47.5l-96 -102q-20 20 -39.5 29t-36.5 9v-258q6 0 13.5 1t18 5t23 13t28.5 24l91 -107q-19 -18 -42 -30t-46.5 -19t-46 -10t-39.5 -3v-69h-60v69zM310 372
q-47 -9 -68.5 -45t-21.5 -83q0 -46 21.5 -81t68.5 -49v258z" />
    <glyph glyph-name="sterling" unicode="&#xa3;" horiz-adv-x="592" 
d="M48 114h96v198h-96v102h96v71q0 45 16 87t47.5 75t77.5 53t107 20q57 0 112 -15t97 -53l-100 -107q-20 20 -45.5 31.5t-45.5 11.5q-33 0 -55.5 -11t-36 -28.5t-19 -40t-5.5 -45.5v-49h156v-102h-156v-198h253v-114h-499v114z" />
    <glyph glyph-name="currency" unicode="&#xa4;" horiz-adv-x="592" 
d="M85 202q-23 32 -36 70.5t-13 81.5t13 81.5t36 70.5l-49 49l60 59l49 -48q32 23 70 35.5t81 12.5t81 -12.5t70 -35.5l49 48l60 -59l-49 -49q49 -67 49 -152t-49 -152l49 -49l-60 -59l-49 48q-32 -23 -70 -35.5t-81 -12.5t-81 12.5t-70 35.5l-49 -48l-60 59zM168 354
q0 -28 10 -52.5t27.5 -42.5t40.5 -28.5t50 -10.5t50 10.5t40.5 28.5t27.5 42.5t10 52.5t-10 52.5t-27.5 42.5t-40.5 28.5t-50 10.5t-50 -10.5t-40.5 -28.5t-27.5 -42.5t-10 -52.5z" />
    <glyph glyph-name="yen" unicode="&#xa5;" horiz-adv-x="592" 
d="M218 158h-169v96h169v48l-12 20h-157v96h100l-185 290h182l150 -264l150 264h182l-185 -290h100v-96h-157l-12 -20v-48h169v-96h-169v-158h-156v158z" />
    <glyph glyph-name="brokenbar" unicode="&#xa6;" horiz-adv-x="222" 
d="M174 675v-350h-126v350h126zM174 175v-350h-126v350h126z" />
    <glyph glyph-name="section" unicode="&#xa7;" horiz-adv-x="592" 
d="M391 545q-11 29 -36.5 45t-55.5 16q-24 0 -44.5 -13t-20.5 -40q0 -25 23 -42t58 -32t75 -30.5t75 -37.5t58 -53.5t23 -76.5q0 -42 -24 -77t-60 -53q26 -21 40.5 -52.5t14.5 -66.5q0 -49 -23.5 -84t-59.5 -57t-79.5 -32t-83.5 -10q-37 0 -72 6t-65 21t-54.5 39t-41.5 60
l128 63q4 -18 15.5 -31t26.5 -21.5t32.5 -12.5t34.5 -4q12 0 26 2.5t26 8.5t20 16t8 25q0 24 -22.5 39.5t-55.5 30t-72.5 29.5t-72.5 37.5t-55.5 55t-22.5 80.5q0 51 22.5 86.5t64.5 61.5q-29 20 -46 49.5t-17 65.5q0 44 19.5 76t50.5 53t69 31t76 10q32 0 65 -5t63.5 -18
t55.5 -34t40 -52zM374 192q34 20 34 61q0 14 -6 25.5t-15.5 20t-21 15t-22.5 11.5l-116 55q-35 -20 -35 -59q0 -18 7.5 -30.5t19 -22t25.5 -16.5t28 -13z" />
    <glyph glyph-name="dieresis" unicode="&#xa8;" horiz-adv-x="260" 
d="M25 558q-18 0 -33 7t-26 19t-17.5 27.5t-6.5 32.5q0 16 6.5 31t17.5 26t25.5 18t31.5 7q35 0 61 -23t26 -59t-24 -61t-61 -25zM233 558q-18 0 -33 7t-26 19t-17.5 27.5t-6.5 32.5q0 16 6.5 31t17.5 26t25.5 18t31.5 7q35 0 61 -23t26 -59t-24 -61t-61 -25z" />
    <glyph glyph-name="copyright" unicode="&#xa9;" horiz-adv-x="800" 
d="M588 300q-5 -39 -21.5 -68t-40.5 -49t-53.5 -30t-62.5 -10q-47 0 -84 16.5t-62.5 45.5t-39 68t-13.5 84q0 46 13 84.5t37.5 66.5t61.5 43.5t85 15.5q34 0 64 -9t54 -27.5t40 -46.5t22 -65h-94q-7 32 -29 45t-49 13q-49 0 -73 -32t-24 -86q0 -56 25.5 -91t69.5 -35
q32 0 55 15t25 52h94zM28 354q0 77 29.5 144.5t80 118t118 80t144.5 29.5t144.5 -29.5t118 -80t80 -118t29.5 -144.5t-29.5 -144.5t-80 -118t-118 -80t-144.5 -29.5t-144.5 29.5t-118 80t-80 118t-29.5 144.5zM130 354q0 -58 21 -109.5t58 -89.5t86 -60.5t105 -22.5
t105 22.5t86 60.5t58 89.5t21 109.5t-21 109.5t-58 89.5t-86 60.5t-105 22.5t-105 -22.5t-86 -60.5t-58 -89.5t-21 -109.5z" />
    <glyph glyph-name="ordfeminine" unicode="&#xaa;" horiz-adv-x="349" 
d="M230 468h-2q-11 -23 -37 -33t-56 -10q-22 0 -42.5 5.5t-36 17t-24.5 28t-9 38.5q0 38 22 59t53.5 31.5t67.5 12.5t64 2q0 18 -15 32.5t-41 14.5q-24 0 -43.5 -10t-35.5 -26l-52 49q27 23 64 35t75 12q43 0 70.5 -10t44 -28.5t23 -46t6.5 -62.5v-148h-96v37zM236 559h-18
q-11 0 -27 -1t-30.5 -5t-25 -12.5t-10.5 -22.5q0 -17 13.5 -22t29.5 -5q29 0 48.5 16t19.5 33v19z" />
    <glyph glyph-name="guillemotleft" unicode="&#xab;" horiz-adv-x="538" 
d="M152 249l116 -173l-91 -61l-159 234l159 234l91 -61zM394 249l116 -173l-91 -61l-159 234l159 234l91 -61z" />
    <glyph glyph-name="logicalnot" unicode="&#xac;" horiz-adv-x="666" 
d="M481 336h-422v126h548v-320h-126v194z" />
    <glyph glyph-name="uni00AD" unicode="&#xad;" horiz-adv-x="296" 
d="M271 189h-246v120h246v-120z" />
    <glyph glyph-name="registered" unicode="&#xae;" horiz-adv-x="800" 
d="M257 553h138q16 0 44 -2t55 -14t47 -37.5t20 -72.5q0 -30 -8 -49.5t-20.5 -32t-29 -19t-33.5 -8.5l100 -155h-105l-89 150h-17v-150h-102v390zM358 391h41q9 0 19.5 1t19.5 5t15 12.5t6 23.5t-6 23.5t-15 12.5t-19.5 5t-19.5 1h-41v-84zM28 354q0 77 29.5 144.5t80 118
t118 80t144.5 29.5t144.5 -29.5t118 -80t80 -118t29.5 -144.5t-29.5 -144.5t-80 -118t-118 -80t-144.5 -29.5t-144.5 29.5t-118 80t-80 118t-29.5 144.5zM130 354q0 -58 21 -109.5t58 -89.5t86 -60.5t105 -22.5t105 22.5t86 60.5t58 89.5t21 109.5t-21 109.5t-58 89.5
t-86 60.5t-105 22.5t-105 -22.5t-86 -60.5t-58 -89.5t-21 -109.5z" />
    <glyph glyph-name="macron" unicode="&#xaf;" horiz-adv-x="260" 
d="M300 591h-340v96h340v-96z" />
    <glyph glyph-name="degree" unicode="&#xb0;" horiz-adv-x="400" 
d="M200 460q37 0 62.5 25.5t25.5 62.5t-25.5 62.5t-62.5 25.5t-62.5 -25.5t-25.5 -62.5t25.5 -62.5t62.5 -25.5zM200 376q-36 0 -67 13.5t-54.5 37t-37 54.5t-13.5 67t13.5 67t37 54.5t54.5 37t67 13.5t67 -13.5t54.5 -37t37 -54.5t13.5 -67t-13.5 -67t-37 -54.5t-54.5 -37
t-67 -13.5z" />
    <glyph glyph-name="plusminus" unicode="&#xb1;" horiz-adv-x="666" 
d="M59 449h211v128h126v-128h211v-126h-211v-128h-126v128h-211v126zM59 155h548v-126h-548v126z" />
    <glyph glyph-name="twosuperior" unicode="&#xb2;" horiz-adv-x="385" 
d="M24 378l186 158q14 12 28.5 26t14.5 29q0 21 -18 30t-41 9q-29 0 -46.5 -15.5t-19.5 -38.5l-102 6q5 71 53 104.5t120 33.5q35 0 64.5 -8t51.5 -23t34 -37.5t12 -51.5q0 -26 -4 -43t-12 -30t-19 -23t-26 -21l-140 -108v-2h201v-84h-337v89z" />
    <glyph glyph-name="threesuperior" unicode="&#xb3;" horiz-adv-x="385" 
d="M143 552h34q14 0 27.5 1.5t24 6.5t16.5 14t6 23q0 16 -15 24.5t-41 8.5q-24 0 -41.5 -11.5t-22.5 -32.5l-110 20q17 64 64.5 89t109.5 25q32 0 62 -7t52.5 -21t36 -35.5t13.5 -50.5q0 -35 -21 -60.5t-62 -32.5v-2q44 -5 68 -34t24 -66q0 -32 -14 -56t-38 -40t-56 -24
t-68 -8q-66 0 -113 27t-62 91l109 22q5 -23 21 -36.5t45 -13.5t48.5 11t19.5 37q0 17 -8 26.5t-21 14t-29.5 5.5t-33.5 1h-25v84z" />
    <glyph glyph-name="acute" unicode="&#xb4;" horiz-adv-x="260" 
d="M131 708h204l-173 -144h-132z" />
    <glyph glyph-name="mu" unicode="&#xb5;" 
d="M521 0h-144v66h-2q-8 -14 -20.5 -28t-30.5 -25t-41 -18t-50 -7q-17 0 -30 3v-219h-150v714h150v-238q0 -21 1.5 -43.5t9 -41.5t23 -31t44.5 -12t47 10.5t27.5 28t12.5 39.5t3 46v242h150v-486z" />
    <glyph glyph-name="paragraph" unicode="&#xb6;" horiz-adv-x="620" 
d="M236 359q-109 0 -166 45t-57 126q0 54 19 88.5t52 54.5t78 27.5t97 7.5h302v-841h-108v745h-109v-745h-108v492z" />
    <glyph glyph-name="periodcentered" unicode="&#xb7;" horiz-adv-x="296" 
d="M56 283q0 19 7 36t19.5 29.5t29.5 19.5t36 7t36 -7t29.5 -19.5t19.5 -29.5t7 -36t-7 -36t-19.5 -29.5t-29.5 -19.5t-36 -7t-36 7t-29.5 19.5t-19.5 29.5t-7 36z" />
    <glyph glyph-name="cedilla" unicode="&#xb8;" horiz-adv-x="260" 
d="M127 -60q22 0 44.5 -2.5t40.5 -11t29.5 -25t11.5 -44.5q0 -27 -14.5 -46t-36 -30t-45.5 -16t-43 -5q-30 0 -64.5 8.5t-60.5 21.5l25 47q12 -5 31.5 -11t45.5 -6q12 0 23.5 1.5t21 5t15.5 9.5t6 16q0 18 -17.5 26t-32.5 8q-17 0 -36 -8l-32 29l62 93h67z" />
    <glyph glyph-name="onesuperior" unicode="&#xb9;" horiz-adv-x="385" 
d="M183 606l-89 -75l-58 66l159 117h96v-425h-108v317z" />
    <glyph glyph-name="ordmasculine" unicode="&#xba;" horiz-adv-x="397" 
d="M23 575q0 34 13.5 62t37 47.5t55.5 30.5t69 11t69 -11t56 -30.5t37.5 -47.5t13.5 -62q0 -36 -13.5 -63.5t-37.5 -47t-56 -29.5t-69 -10t-69 10t-55.5 29.5t-37 47t-13.5 63.5zM125 575q1 -27 20 -46.5t53 -19.5t54 19.5t20 46.5q0 28 -20 47.5t-54 19.5t-53.5 -19.5
t-19.5 -47.5z" />
    <glyph glyph-name="guillemotright" unicode="&#xbb;" horiz-adv-x="538" 
d="M386 249l-116 173l91 61l159 -234l-159 -234l-91 61zM144 249l-116 173l91 61l159 -234l-159 -234l-91 61z" />
    <glyph glyph-name="onequarter" unicode="&#xbc;" horiz-adv-x="889" 
d="M716 85h-209v78l199 262h118v-256h57v-84h-57v-85h-108v85zM716 305h-2l-99 -136h101v136zM155 606l-89 -75l-58 66l159 117h96v-425h-108v317zM594 740l84 -47l-413 -725l-76 43z" />
    <glyph glyph-name="onehalf" unicode="&#xbd;" horiz-adv-x="889" 
d="M155 606l-89 -75l-58 66l159 117h96v-425h-108v317zM544 89l186 158q14 12 28.5 26t14.5 29q0 21 -18 30t-41 9q-29 0 -46.5 -15.5t-19.5 -38.5l-102 6q5 71 53 104.5t120 33.5q35 0 64.5 -8t51.5 -23t34 -37.5t12 -51.5q0 -26 -4 -43t-12 -30t-19 -23t-26 -21l-140 -108
v-2h201v-84h-337v89zM594 740l84 -47l-413 -725l-76 43z" />
    <glyph glyph-name="threequarters" unicode="&#xbe;" horiz-adv-x="889" 
d="M130 552h34q14 0 27.5 1.5t24 6.5t16.5 14t6 23q0 16 -15 24.5t-41 8.5q-24 0 -41.5 -11.5t-22.5 -32.5l-109 20q8 32 24.5 53.5t39 35t50.5 19.5t59 6q32 0 62 -7t52.5 -21t36 -35.5t13.5 -50.5q0 -35 -21 -60.5t-62 -32.5v-2q44 -5 68 -34t24 -66q0 -32 -14 -56
t-38 -40t-56 -24t-68 -8q-66 0 -113 27t-62 91l109 22q5 -23 21 -36.5t45 -13.5t48.5 11t19.5 37q0 17 -8 26.5t-21 14t-29.5 5.5t-33.5 1h-25v84zM720 85h-209v78l199 262h118v-256h57v-84h-57v-85h-108v85zM720 305h-2l-99 -136h101v136zM618 740l84 -47l-413 -725l-76 43
z" />
    <glyph glyph-name="questiondown" unicode="&#xbf;" horiz-adv-x="556" 
d="M340 208q0 -30 -8 -51t-27 -39q-28 -27 -51.5 -47t-40.5 -37.5t-26.5 -33t-9.5 -32.5q0 -33 20.5 -51.5t51.5 -18.5q47 0 71.5 26t27.5 63l154 -10q-11 -106 -78 -161.5t-172 -55.5q-46 0 -87 12.5t-71.5 37.5t-48.5 62t-18 85q0 28 6 52t20.5 47t38 46.5t59.5 51.5
q23 18 31 35t8 34v29h150v-44zM357 400q0 -19 -7 -36t-19.5 -29.5t-29.5 -19.5t-36 -7t-36 7t-29.5 19.5t-19.5 29.5t-7 36t7 36t19.5 29.5t29.5 19.5t36 7t36 -7t29.5 -19.5t19.5 -29.5t7 -36z" />
    <glyph glyph-name="Agrave" unicode="&#xc0;" horiz-adv-x="741" 
d="M305 708h129l308 -708h-176l-61 150h-275l-59 -150h-172zM365 502l-86 -220h173zM473 760h-132l-173 144h204z" />
    <glyph glyph-name="Aacute" unicode="&#xc1;" horiz-adv-x="741" 
d="M305 708h129l308 -708h-176l-61 150h-275l-59 -150h-172zM365 502l-86 -220h173zM372 904h204l-173 -144h-132z" />
    <glyph glyph-name="Acircumflex" unicode="&#xc2;" horiz-adv-x="741" 
d="M305 708h129l308 -708h-176l-61 150h-275l-59 -150h-172zM365 502l-86 -220h173zM432 760l-63 78l-62 -78h-135l119 144h163l116 -144h-138z" />
    <glyph glyph-name="Atilde" unicode="&#xc3;" horiz-adv-x="741" 
d="M305 708h129l308 -708h-176l-61 150h-275l-59 -150h-172zM365 502l-86 -220h173zM175 766q4 25 14 50t25.5 44.5t37.5 31.5t50 12q25 0 45 -6t42 -15q14 -5 27.5 -10t28.5 -5q17 0 27 10.5t17 25.5h78q-5 -29 -14 -54t-24.5 -43.5t-38 -29.5t-53.5 -11q-22 0 -41.5 6.5
t-36.5 14.5t-32.5 14.5t-30.5 6.5q-17 0 -27 -14t-15 -28h-79z" />
    <glyph glyph-name="Adieresis" unicode="&#xc4;" horiz-adv-x="741" 
d="M305 708h129l308 -708h-176l-61 150h-275l-59 -150h-172zM365 502l-86 -220h173zM266 754q-18 0 -33 7t-26 19t-17.5 27.5t-6.5 32.5q0 16 6.5 31t17.5 26t25.5 18t31.5 7q35 0 61 -23t26 -59t-24 -61t-61 -25zM474 754q-18 0 -33 7t-26 19t-17.5 27.5t-6.5 32.5
q0 16 6.5 31t17.5 26t25.5 18t31.5 7q35 0 61 -23t26 -59t-24 -61t-61 -25z" />
    <glyph glyph-name="Aring" unicode="&#xc5;" horiz-adv-x="741" 
d="M305 708h129l308 -708h-176l-61 150h-275l-59 -150h-172zM365 502l-86 -220h173zM371 731q-23 0 -43 9t-35 24t-24 35t-9 43q0 22 9 42.5t24 35.5t35 24t43 9q22 0 42.5 -9t35.5 -24t24 -35.5t9 -42.5q0 -23 -9 -43t-24 -35t-35.5 -24t-42.5 -9zM320 842q0 -21 15 -36
t36 -15t36 15t15 36t-15 36t-36 15t-36 -15t-15 -36z" />
    <glyph glyph-name="AE" unicode="&#xc6;" horiz-adv-x="1037" 
d="M534 150h-263l-95 -150h-191l449 708h538v-144h-282v-132h258v-144h-258v-144h294v-144h-450v150zM534 564h-17l-179 -282h196v282z" />
    <glyph glyph-name="Ccedilla" unicode="&#xc7;" horiz-adv-x="685" 
d="M535 524q-23 28 -56.5 43t-77.5 15t-81.5 -17t-65 -47.5t-43 -72.5t-15.5 -91q0 -50 15.5 -91.5t42.5 -72t63.5 -47.5t78.5 -17q48 0 85 20t61 56l130 -97q-45 -63 -114 -93t-142 -30h-9.5t-9.5 1l-29 -43q22 0 44.5 -2.5t40.5 -11t29.5 -25t11.5 -44.5q0 -27 -14.5 -46
t-36 -30t-45.5 -16t-43 -5q-30 0 -64.5 8.5t-60.5 21.5l25 47q12 -5 31.5 -11t45.5 -6q12 0 23.5 1.5t21 5t15.5 9.5t6 16q0 18 -17.5 26t-32.5 8q-17 0 -36 -8l-32 29l54 82q-67 12 -122 42.5t-94.5 77.5t-61.5 109t-22 136q0 85 28.5 154t79.5 117.5t121 74.5t153 26
q30 0 62.5 -5.5t64 -17.5t60.5 -32t52 -49z" />
    <glyph glyph-name="Egrave" unicode="&#xc8;" horiz-adv-x="630" 
d="M78 708h481v-144h-325v-132h307v-144h-307v-144h343v-144h-499v708zM417 760h-132l-173 144h204z" />
    <glyph glyph-name="Eacute" unicode="&#xc9;" horiz-adv-x="630" 
d="M78 708h481v-144h-325v-132h307v-144h-307v-144h343v-144h-499v708zM316 904h204l-173 -144h-132z" />
    <glyph glyph-name="Ecircumflex" unicode="&#xca;" horiz-adv-x="630" 
d="M78 708h481v-144h-325v-132h307v-144h-307v-144h343v-144h-499v708zM376 760l-63 78l-62 -78h-135l119 144h163l116 -144h-138z" />
    <glyph glyph-name="Edieresis" unicode="&#xcb;" horiz-adv-x="630" 
d="M78 708h481v-144h-325v-132h307v-144h-307v-144h343v-144h-499v708zM210 754q-18 0 -33 7t-26 19t-17.5 27.5t-6.5 32.5q0 16 6.5 31t17.5 26t25.5 18t31.5 7q35 0 61 -23t26 -59t-24 -61t-61 -25zM418 754q-18 0 -33 7t-26 19t-17.5 27.5t-6.5 32.5q0 16 6.5 31t17.5 26
t25.5 18t31.5 7q35 0 61 -23t26 -59t-24 -61t-61 -25z" />
    <glyph glyph-name="Igrave" unicode="&#xcc;" horiz-adv-x="296" 
d="M70 708h156v-708h-156v708zM250 760h-132l-173 144h204z" />
    <glyph glyph-name="Iacute" unicode="&#xcd;" horiz-adv-x="296" 
d="M70 708h156v-708h-156v708zM149 904h204l-173 -144h-132z" />
    <glyph glyph-name="Icircumflex" unicode="&#xce;" horiz-adv-x="296" 
d="M70 708h156v-708h-156v708zM209 760l-63 78l-62 -78h-135l119 144h163l116 -144h-138z" />
    <glyph glyph-name="Idieresis" unicode="&#xcf;" horiz-adv-x="296" 
d="M70 708h156v-708h-156v708zM43 754q-18 0 -33 7t-26 19t-17.5 27.5t-6.5 32.5q0 16 6.5 31t17.5 26t25.5 18t31.5 7q35 0 61 -23t26 -59t-24 -61t-61 -25zM251 754q-18 0 -33 7t-26 19t-17.5 27.5t-6.5 32.5q0 16 6.5 31t17.5 26t25.5 18t31.5 7q35 0 61 -23t26 -59
t-24 -61t-61 -25z" />
    <glyph glyph-name="Eth" unicode="&#xd0;" horiz-adv-x="759" 
d="M228 420h198v-102h-198v-174h81q54 0 100.5 11t80.5 36.5t53.5 67t19.5 101.5q0 52 -19.5 90.5t-52.5 63.5t-77.5 37.5t-93.5 12.5h-92v-144zM72 318h-60v102h60v288h234q85 0 161.5 -19t133.5 -61.5t90.5 -110.5t33.5 -165q0 -86 -32.5 -151.5t-87.5 -110t-127 -67.5
t-151 -23h-255v318z" />
    <glyph glyph-name="Ntilde" unicode="&#xd1;" horiz-adv-x="815" 
d="M72 708h212l301 -492h2v492h156v-708h-204l-309 504h-2v-504h-156v708zM212 766q4 25 14 50t25.5 44.5t37.5 31.5t50 12q25 0 45 -6t42 -15q14 -5 27.5 -10t28.5 -5q17 0 27 10.5t17 25.5h78q-5 -29 -14 -54t-24.5 -43.5t-38 -29.5t-53.5 -11q-22 0 -41.5 6.5t-36.5 14.5
t-32.5 14.5t-30.5 6.5q-17 0 -27 -14t-15 -28h-79z" />
    <glyph glyph-name="Ograve" unicode="&#xd2;" horiz-adv-x="832" 
d="M34 354q0 85 28.5 154t79.5 117.5t121 74.5t153 26t153 -26t121 -74.5t79.5 -117.5t28.5 -154t-28.5 -154t-79.5 -117.5t-121 -74.5t-153 -26t-153 26t-121 74.5t-79.5 117.5t-28.5 154zM196 354q0 -50 15.5 -91.5t44.5 -72t69.5 -47.5t90.5 -17t90.5 17t69.5 47.5
t44.5 72t15.5 91.5q0 49 -15.5 91t-44.5 72.5t-69.5 47.5t-90.5 17t-90.5 -17t-69.5 -47.5t-44.5 -72.5t-15.5 -91zM518 760h-132l-173 144h204z" />
    <glyph glyph-name="Oacute" unicode="&#xd3;" horiz-adv-x="832" 
d="M34 354q0 85 28.5 154t79.5 117.5t121 74.5t153 26t153 -26t121 -74.5t79.5 -117.5t28.5 -154t-28.5 -154t-79.5 -117.5t-121 -74.5t-153 -26t-153 26t-121 74.5t-79.5 117.5t-28.5 154zM196 354q0 -50 15.5 -91.5t44.5 -72t69.5 -47.5t90.5 -17t90.5 17t69.5 47.5
t44.5 72t15.5 91.5q0 49 -15.5 91t-44.5 72.5t-69.5 47.5t-90.5 17t-90.5 -17t-69.5 -47.5t-44.5 -72.5t-15.5 -91zM417 904h204l-173 -144h-132z" />
    <glyph glyph-name="Ocircumflex" unicode="&#xd4;" horiz-adv-x="832" 
d="M34 354q0 85 28.5 154t79.5 117.5t121 74.5t153 26t153 -26t121 -74.5t79.5 -117.5t28.5 -154t-28.5 -154t-79.5 -117.5t-121 -74.5t-153 -26t-153 26t-121 74.5t-79.5 117.5t-28.5 154zM196 354q0 -50 15.5 -91.5t44.5 -72t69.5 -47.5t90.5 -17t90.5 17t69.5 47.5
t44.5 72t15.5 91.5q0 49 -15.5 91t-44.5 72.5t-69.5 47.5t-90.5 17t-90.5 -17t-69.5 -47.5t-44.5 -72.5t-15.5 -91zM477 760l-63 78l-62 -78h-135l119 144h163l116 -144h-138z" />
    <glyph glyph-name="Otilde" unicode="&#xd5;" horiz-adv-x="832" 
d="M34 354q0 85 28.5 154t79.5 117.5t121 74.5t153 26t153 -26t121 -74.5t79.5 -117.5t28.5 -154t-28.5 -154t-79.5 -117.5t-121 -74.5t-153 -26t-153 26t-121 74.5t-79.5 117.5t-28.5 154zM196 354q0 -50 15.5 -91.5t44.5 -72t69.5 -47.5t90.5 -17t90.5 17t69.5 47.5
t44.5 72t15.5 91.5q0 49 -15.5 91t-44.5 72.5t-69.5 47.5t-90.5 17t-90.5 -17t-69.5 -47.5t-44.5 -72.5t-15.5 -91zM220 766q4 25 14 50t25.5 44.5t37.5 31.5t50 12q25 0 45 -6t42 -15q14 -5 27.5 -10t28.5 -5q17 0 27 10.5t17 25.5h78q-5 -29 -14 -54t-24.5 -43.5
t-38 -29.5t-53.5 -11q-22 0 -41.5 6.5t-36.5 14.5t-32.5 14.5t-30.5 6.5q-17 0 -27 -14t-15 -28h-79z" />
    <glyph glyph-name="Odieresis" unicode="&#xd6;" horiz-adv-x="832" 
d="M34 354q0 85 28.5 154t79.5 117.5t121 74.5t153 26t153 -26t121 -74.5t79.5 -117.5t28.5 -154t-28.5 -154t-79.5 -117.5t-121 -74.5t-153 -26t-153 26t-121 74.5t-79.5 117.5t-28.5 154zM196 354q0 -50 15.5 -91.5t44.5 -72t69.5 -47.5t90.5 -17t90.5 17t69.5 47.5
t44.5 72t15.5 91.5q0 49 -15.5 91t-44.5 72.5t-69.5 47.5t-90.5 17t-90.5 -17t-69.5 -47.5t-44.5 -72.5t-15.5 -91zM311 754q-18 0 -33 7t-26 19t-17.5 27.5t-6.5 32.5q0 16 6.5 31t17.5 26t25.5 18t31.5 7q35 0 61 -23t26 -59t-24 -61t-61 -25zM519 754q-18 0 -33 7t-26 19
t-17.5 27.5t-6.5 32.5q0 16 6.5 31t17.5 26t25.5 18t31.5 7q35 0 61 -23t26 -59t-24 -61t-61 -25z" />
    <glyph glyph-name="multiply" unicode="&#xd7;" horiz-adv-x="666" 
d="M157 570l177 -175l172 174l89 -86l-173 -180l180 -173l-92 -93l-176 176l-177 -177l-89 86l174 181l-178 172z" />
    <glyph glyph-name="Oslash" unicode="&#xd8;" horiz-adv-x="832" 
d="M127 99q-45 48 -69 112.5t-24 142.5q0 85 28.5 154t79.5 117.5t121 74.5t153 26q131 0 227 -64l92 100l55 -49l-90 -98q47 -48 72.5 -114t25.5 -147q0 -85 -28.5 -154t-79.5 -117.5t-121 -74.5t-153 -26q-69 0 -128 18t-105 50l-93 -101l-56 48zM539 548q-53 34 -123 34
q-50 0 -90.5 -17t-69.5 -47.5t-44.5 -72.5t-15.5 -91q0 -78 39 -137zM287 164q26 -18 58.5 -28t70.5 -10q50 0 90.5 17t69.5 47.5t44.5 72t15.5 91.5q0 42 -11.5 78.5t-32.5 64.5z" />
    <glyph glyph-name="Ugrave" unicode="&#xd9;" horiz-adv-x="741" 
d="M669 273q0 -63 -19 -116t-56.5 -92t-93.5 -61t-129 -22q-74 0 -130 22t-93.5 61t-56.5 92t-19 116v435h156v-429q0 -33 10.5 -61t29.5 -48.5t45.5 -32t57.5 -11.5t57 11.5t45 32t29.5 48.5t10.5 61v429h156v-435zM473 760h-132l-173 144h204z" />
    <glyph glyph-name="Uacute" unicode="&#xda;" horiz-adv-x="741" 
d="M669 273q0 -63 -19 -116t-56.5 -92t-93.5 -61t-129 -22q-74 0 -130 22t-93.5 61t-56.5 92t-19 116v435h156v-429q0 -33 10.5 -61t29.5 -48.5t45.5 -32t57.5 -11.5t57 11.5t45 32t29.5 48.5t10.5 61v429h156v-435zM372 904h204l-173 -144h-132z" />
    <glyph glyph-name="Ucircumflex" unicode="&#xdb;" horiz-adv-x="741" 
d="M669 273q0 -63 -19 -116t-56.5 -92t-93.5 -61t-129 -22q-74 0 -130 22t-93.5 61t-56.5 92t-19 116v435h156v-429q0 -33 10.5 -61t29.5 -48.5t45.5 -32t57.5 -11.5t57 11.5t45 32t29.5 48.5t10.5 61v429h156v-435zM432 760l-63 78l-62 -78h-135l119 144h163l116 -144h-138
z" />
    <glyph glyph-name="Udieresis" unicode="&#xdc;" horiz-adv-x="741" 
d="M669 273q0 -63 -19 -116t-56.5 -92t-93.5 -61t-129 -22q-74 0 -130 22t-93.5 61t-56.5 92t-19 116v435h156v-429q0 -33 10.5 -61t29.5 -48.5t45.5 -32t57.5 -11.5t57 11.5t45 32t29.5 48.5t10.5 61v429h156v-435zM266 754q-18 0 -33 7t-26 19t-17.5 27.5t-6.5 32.5
q0 16 6.5 31t17.5 26t25.5 18t31.5 7q35 0 61 -23t26 -59t-24 -61t-61 -25zM474 754q-18 0 -33 7t-26 19t-17.5 27.5t-6.5 32.5q0 16 6.5 31t17.5 26t25.5 18t31.5 7q35 0 61 -23t26 -59t-24 -61t-61 -25z" />
    <glyph glyph-name="Yacute" unicode="&#xdd;" horiz-adv-x="648" 
d="M246 302l-266 406h194l150 -265l159 265h185l-266 -406v-302h-156v302zM325 930h204l-173 -144h-132z" />
    <glyph glyph-name="Thorn" unicode="&#xde;" horiz-adv-x="630" 
d="M72 708h156v-126h107q55 0 104 -10t85.5 -34.5t58 -66t21.5 -104.5q0 -62 -20 -104t-55 -67t-83 -35.5t-104 -10.5h-114v-150h-156v708zM228 282h104q21 0 40.5 4t35 13.5t25 26t9.5 41.5q0 27 -12.5 43.5t-32 25.5t-43.5 11.5t-46 2.5h-80v-168z" />
    <glyph glyph-name="germandbls" unicode="&#xdf;" horiz-adv-x="630" 
d="M53 513q0 255 256 255q42 0 83.5 -10.5t74.5 -33t53 -57t20 -82.5q0 -58 -24 -98t-78 -62v-2q79 -16 117.5 -72t38.5 -134q0 -53 -18 -95.5t-49.5 -72t-75 -45.5t-95.5 -16q-47 0 -93 12v122q26 -8 49 -8q28 0 53 7t44 21.5t30 36.5t11 52q0 64 -39 93t-98 29h-20v126h12
q38 0 64.5 20t26.5 59q0 19 -7.5 33.5t-20.5 24.5t-29 15t-34 5q-46 0 -74 -26.5t-28 -71.5v-538h-150v513z" />
    <glyph glyph-name="agrave" unicode="&#xe0;" horiz-adv-x="537" 
d="M358 61h-2q-25 -39 -66.5 -56t-87.5 -17q-34 0 -65.5 9.5t-55.5 28.5t-38 47t-14 65q0 42 15.5 71t42 48t60.5 29.5t70.5 15.5t73 6t67.5 1q0 40 -28.5 63.5t-67.5 23.5q-37 0 -67.5 -15.5t-54.5 -42.5l-80 82q42 39 98 58.5t116 19.5q66 0 108.5 -16.5t68 -48.5
t35.5 -78.5t10 -107.5v-247h-138v61zM321 213q-17 0 -42.5 -1.5t-49 -8.5t-40 -21t-16.5 -39q0 -27 23 -40t48 -13q22 0 42.5 6t36.5 17t25.5 28t9.5 40v32h-37zM371 564h-132l-173 144h204z" />
    <glyph glyph-name="aacute" unicode="&#xe1;" horiz-adv-x="537" 
d="M358 61h-2q-25 -39 -66.5 -56t-87.5 -17q-34 0 -65.5 9.5t-55.5 28.5t-38 47t-14 65q0 42 15.5 71t42 48t60.5 29.5t70.5 15.5t73 6t67.5 1q0 40 -28.5 63.5t-67.5 23.5q-37 0 -67.5 -15.5t-54.5 -42.5l-80 82q42 39 98 58.5t116 19.5q66 0 108.5 -16.5t68 -48.5
t35.5 -78.5t10 -107.5v-247h-138v61zM321 213q-17 0 -42.5 -1.5t-49 -8.5t-40 -21t-16.5 -39q0 -27 23 -40t48 -13q22 0 42.5 6t36.5 17t25.5 28t9.5 40v32h-37zM270 708h204l-173 -144h-132z" />
    <glyph glyph-name="acircumflex" unicode="&#xe2;" horiz-adv-x="537" 
d="M358 61h-2q-25 -39 -66.5 -56t-87.5 -17q-34 0 -65.5 9.5t-55.5 28.5t-38 47t-14 65q0 42 15.5 71t42 48t60.5 29.5t70.5 15.5t73 6t67.5 1q0 40 -28.5 63.5t-67.5 23.5q-37 0 -67.5 -15.5t-54.5 -42.5l-80 82q42 39 98 58.5t116 19.5q66 0 108.5 -16.5t68 -48.5
t35.5 -78.5t10 -107.5v-247h-138v61zM321 213q-17 0 -42.5 -1.5t-49 -8.5t-40 -21t-16.5 -39q0 -27 23 -40t48 -13q22 0 42.5 6t36.5 17t25.5 28t9.5 40v32h-37zM330 564l-63 78l-62 -78h-135l119 144h163l116 -144h-138z" />
    <glyph glyph-name="atilde" unicode="&#xe3;" horiz-adv-x="537" 
d="M358 61h-2q-25 -39 -66.5 -56t-87.5 -17q-34 0 -65.5 9.5t-55.5 28.5t-38 47t-14 65q0 42 15.5 71t42 48t60.5 29.5t70.5 15.5t73 6t67.5 1q0 40 -28.5 63.5t-67.5 23.5q-37 0 -67.5 -15.5t-54.5 -42.5l-80 82q42 39 98 58.5t116 19.5q66 0 108.5 -16.5t68 -48.5
t35.5 -78.5t10 -107.5v-247h-138v61zM321 213q-17 0 -42.5 -1.5t-49 -8.5t-40 -21t-16.5 -39q0 -27 23 -40t48 -13q22 0 42.5 6t36.5 17t25.5 28t9.5 40v32h-37zM73 570q4 25 14 50t25.5 44.5t37.5 31.5t50 12q25 0 45 -6t42 -15q14 -5 27.5 -10t28.5 -5q17 0 27 10.5
t17 25.5h78q-5 -29 -14 -54t-24.5 -43.5t-38 -29.5t-53.5 -11q-22 0 -41.5 6.5t-36.5 14.5t-32.5 14.5t-30.5 6.5q-17 0 -27 -14t-15 -28h-79z" />
    <glyph glyph-name="adieresis" unicode="&#xe4;" horiz-adv-x="537" 
d="M358 61h-2q-25 -39 -66.5 -56t-87.5 -17q-34 0 -65.5 9.5t-55.5 28.5t-38 47t-14 65q0 42 15.5 71t42 48t60.5 29.5t70.5 15.5t73 6t67.5 1q0 40 -28.5 63.5t-67.5 23.5q-37 0 -67.5 -15.5t-54.5 -42.5l-80 82q42 39 98 58.5t116 19.5q66 0 108.5 -16.5t68 -48.5
t35.5 -78.5t10 -107.5v-247h-138v61zM321 213q-17 0 -42.5 -1.5t-49 -8.5t-40 -21t-16.5 -39q0 -27 23 -40t48 -13q22 0 42.5 6t36.5 17t25.5 28t9.5 40v32h-37zM164 558q-18 0 -33 7t-26 19t-17.5 27.5t-6.5 32.5q0 16 6.5 31t17.5 26t25.5 18t31.5 7q35 0 61 -23t26 -59
t-24 -61t-61 -25zM372 558q-18 0 -33 7t-26 19t-17.5 27.5t-6.5 32.5q0 16 6.5 31t17.5 26t25.5 18t31.5 7q35 0 61 -23t26 -59t-24 -61t-61 -25z" />
    <glyph glyph-name="aring" unicode="&#xe5;" horiz-adv-x="537" 
d="M358 61h-2q-25 -39 -66.5 -56t-87.5 -17q-34 0 -65.5 9.5t-55.5 28.5t-38 47t-14 65q0 42 15.5 71t42 48t60.5 29.5t70.5 15.5t73 6t67.5 1q0 40 -28.5 63.5t-67.5 23.5q-37 0 -67.5 -15.5t-54.5 -42.5l-80 82q42 39 98 58.5t116 19.5q66 0 108.5 -16.5t68 -48.5
t35.5 -78.5t10 -107.5v-247h-138v61zM321 213q-17 0 -42.5 -1.5t-49 -8.5t-40 -21t-16.5 -39q0 -27 23 -40t48 -13q22 0 42.5 6t36.5 17t25.5 28t9.5 40v32h-37zM269 545q-23 0 -43 9t-35 24t-24 35t-9 43t9 43t24 35t35 24t43 9t43 -9t35 -24t24 -35t9 -43t-9 -43t-24 -35
t-35 -24t-43 -9zM218 656q0 -21 15 -36t36 -15t36 15t15 36t-15 36t-36 15t-36 -15t-15 -36z" />
    <glyph glyph-name="ae" unicode="&#xe6;" horiz-adv-x="852" 
d="M60 420q42 39 98 58.5t116 19.5q43 0 84.5 -14t73.5 -45q30 29 72.5 44t90.5 15q52 0 94.5 -18t72 -51.5t45.5 -80.5t16 -105v-47h-348q9 -43 39 -68.5t74 -25.5q37 0 62.5 16.5t44.5 42.5l105 -77q-36 -46 -91 -71t-114 -25q-60 0 -111 17t-83 62q-32 -44 -83.5 -61.5
t-115.5 -17.5q-34 0 -65.5 9.5t-55.5 28.5t-38 47t-14 65q0 39 15 66t39.5 45t56 27.5t65 14.5t66.5 6t60 1h18q0 44 -23 71t-64 27q-37 0 -67.5 -15.5t-54.5 -42.5zM173 139q0 -17 7.5 -26.5t18.5 -14.5t25 -6.5t26 -1.5q54 0 76.5 29t22.5 77h-18q-17 0 -44 -1t-52.5 -6
t-43.5 -17t-18 -33zM673 298q1 38 -25 65t-67 27q-25 0 -44 -8t-32.5 -20.5t-21 -29t-8.5 -34.5h198z" />
    <glyph glyph-name="ccedilla" unicode="&#xe7;" horiz-adv-x="482" 
d="M382 329q-11 16 -31 26.5t-43 10.5q-57 0 -88.5 -34t-31.5 -89t31.5 -89t88.5 -34q25 0 43 11t31 26l99 -104q-35 -36 -82.5 -50.5t-90.5 -14.5q-7 0 -9 1l-33 -49q22 0 44.5 -2.5t40.5 -11t29.5 -25t11.5 -44.5q0 -27 -14.5 -46t-36 -30t-45.5 -16t-43 -5
q-30 0 -64.5 8.5t-60.5 21.5l25 47q12 -5 31.5 -11t45.5 -6q12 0 23.5 1.5t21 5t15.5 9.5t6 16q0 18 -17.5 26t-32.5 8q-17 0 -36 -8l-32 29l60 90q-44 9 -80.5 30.5t-63 53t-41.5 72.5t-15 90q0 58 21 105t57.5 80.5t86 51.5t105.5 18q43 0 90.5 -14.5t82.5 -50.5z" />
    <glyph glyph-name="egrave" unicode="&#xe8;" 
d="M513 84q-36 -46 -91 -71t-114 -25q-56 0 -105.5 18t-86 51.5t-57.5 80.5t-21 105t21 105t57.5 80.5t86 51.5t105.5 18q52 0 94.5 -18t72 -51.5t45.5 -80.5t16 -105v-47h-348q9 -43 39 -68.5t74 -25.5q37 0 62.5 16.5t44.5 42.5zM386 298q1 38 -25 65t-67 27q-25 0 -44 -8
t-32.5 -20.5t-21 -29t-8.5 -34.5h198zM389 564h-132l-173 144h204z" />
    <glyph glyph-name="eacute" unicode="&#xe9;" 
d="M513 84q-36 -46 -91 -71t-114 -25q-56 0 -105.5 18t-86 51.5t-57.5 80.5t-21 105t21 105t57.5 80.5t86 51.5t105.5 18q52 0 94.5 -18t72 -51.5t45.5 -80.5t16 -105v-47h-348q9 -43 39 -68.5t74 -25.5q37 0 62.5 16.5t44.5 42.5zM386 298q1 38 -25 65t-67 27q-25 0 -44 -8
t-32.5 -20.5t-21 -29t-8.5 -34.5h198zM288 708h204l-173 -144h-132z" />
    <glyph glyph-name="ecircumflex" unicode="&#xea;" 
d="M513 84q-36 -46 -91 -71t-114 -25q-56 0 -105.5 18t-86 51.5t-57.5 80.5t-21 105t21 105t57.5 80.5t86 51.5t105.5 18q52 0 94.5 -18t72 -51.5t45.5 -80.5t16 -105v-47h-348q9 -43 39 -68.5t74 -25.5q37 0 62.5 16.5t44.5 42.5zM386 298q1 38 -25 65t-67 27q-25 0 -44 -8
t-32.5 -20.5t-21 -29t-8.5 -34.5h198zM348 564l-63 78l-62 -78h-135l119 144h163l116 -144h-138z" />
    <glyph glyph-name="edieresis" unicode="&#xeb;" 
d="M513 84q-36 -46 -91 -71t-114 -25q-56 0 -105.5 18t-86 51.5t-57.5 80.5t-21 105t21 105t57.5 80.5t86 51.5t105.5 18q52 0 94.5 -18t72 -51.5t45.5 -80.5t16 -105v-47h-348q9 -43 39 -68.5t74 -25.5q37 0 62.5 16.5t44.5 42.5zM386 298q1 38 -25 65t-67 27q-25 0 -44 -8
t-32.5 -20.5t-21 -29t-8.5 -34.5h198zM182 558q-18 0 -33 7t-26 19t-17.5 27.5t-6.5 32.5q0 16 6.5 31t17.5 26t25.5 18t31.5 7q35 0 61 -23t26 -59t-24 -61t-61 -25zM390 558q-18 0 -33 7t-26 19t-17.5 27.5t-6.5 32.5q0 16 6.5 31t17.5 26t25.5 18t31.5 7q35 0 61 -23
t26 -59t-24 -61t-61 -25z" />
    <glyph glyph-name="igrave" unicode="&#xec;" horiz-adv-x="260" 
d="M55 486h150v-486h-150v486zM232 564h-132l-173 144h204z" />
    <glyph glyph-name="iacute" unicode="&#xed;" horiz-adv-x="260" 
d="M55 486h150v-486h-150v486zM131 708h204l-173 -144h-132z" />
    <glyph glyph-name="icircumflex" unicode="&#xee;" horiz-adv-x="260" 
d="M55 486h150v-486h-150v486zM191 564l-63 78l-62 -78h-135l119 144h163l116 -144h-138z" />
    <glyph glyph-name="idieresis" unicode="&#xef;" horiz-adv-x="260" 
d="M55 486h150v-486h-150v486zM25 558q-18 0 -33 7t-26 19t-17.5 27.5t-6.5 32.5q0 16 6.5 31t17.5 26t25.5 18t31.5 7q35 0 61 -23t26 -59t-24 -61t-61 -25zM233 558q-18 0 -33 7t-26 19t-17.5 27.5t-6.5 32.5q0 16 6.5 31t17.5 26t25.5 18t31.5 7q35 0 61 -23t26 -59
t-24 -61t-61 -25z" />
    <glyph glyph-name="eth" unicode="&#xf0;" horiz-adv-x="610" 
d="M526 710l-123 -51q24 -25 53.5 -60t56 -81.5t44.5 -104.5t18 -129q0 -68 -17.5 -123t-52 -93.5t-84.5 -59.5t-116 -20q-56 0 -105.5 18t-86 51.5t-57.5 80.5t-21 105t21.5 105t56.5 80.5t79.5 51.5t90.5 18q26 0 52 -4.5t46 -21.5l2 2q-10 14 -24 31.5t-29 35.5
t-30.5 34.5t-27.5 27.5l-106 -45l-72 68l108 46q-5 5 -13 12.5t-17.5 16t-19.5 16.5t-19 14l122 70q23 -17 42.5 -35t37.5 -37l114 48zM185 243q0 -55 31.5 -89t88.5 -34t88.5 34t31.5 89t-31.5 89t-88.5 34t-88.5 -34t-31.5 -89z" />
    <glyph glyph-name="ntilde" unicode="&#xf1;" 
d="M53 486h144v-66h2q7 14 20 28t31 25t41 18t50 7q57 0 92 -17.5t54.5 -48.5t26.5 -73t7 -91v-268h-150v238q0 21 -1.5 43.5t-9 41.5t-23 31t-44.5 12t-47 -10.5t-27.5 -28t-12.5 -39.5t-3 -46v-242h-150v486zM91 570q4 25 14 50t25.5 44.5t37.5 31.5t50 12q25 0 45 -6
t42 -15q14 -5 27.5 -10t28.5 -5q17 0 27 10.5t17 25.5h78q-5 -29 -14 -54t-24.5 -43.5t-38 -29.5t-53.5 -11q-22 0 -41.5 6.5t-36.5 14.5t-32.5 14.5t-30.5 6.5q-17 0 -27 -14t-15 -28h-79z" />
    <glyph glyph-name="ograve" unicode="&#xf2;" horiz-adv-x="610" 
d="M35 243q0 58 21 105t57.5 80.5t86 51.5t105.5 18t105.5 -18t86 -51.5t57.5 -80.5t21 -105t-21 -105t-57.5 -80.5t-86 -51.5t-105.5 -18t-105.5 18t-86 51.5t-57.5 80.5t-21 105zM185 243q0 -55 31.5 -89t88.5 -34t88.5 34t31.5 89t-31.5 89t-88.5 34t-88.5 -34t-31.5 -89
zM407 564h-132l-173 144h204z" />
    <glyph glyph-name="oacute" unicode="&#xf3;" horiz-adv-x="610" 
d="M35 243q0 58 21 105t57.5 80.5t86 51.5t105.5 18t105.5 -18t86 -51.5t57.5 -80.5t21 -105t-21 -105t-57.5 -80.5t-86 -51.5t-105.5 -18t-105.5 18t-86 51.5t-57.5 80.5t-21 105zM185 243q0 -55 31.5 -89t88.5 -34t88.5 34t31.5 89t-31.5 89t-88.5 34t-88.5 -34t-31.5 -89
zM306 708h204l-173 -144h-132z" />
    <glyph glyph-name="ocircumflex" unicode="&#xf4;" horiz-adv-x="610" 
d="M35 243q0 58 21 105t57.5 80.5t86 51.5t105.5 18t105.5 -18t86 -51.5t57.5 -80.5t21 -105t-21 -105t-57.5 -80.5t-86 -51.5t-105.5 -18t-105.5 18t-86 51.5t-57.5 80.5t-21 105zM185 243q0 -55 31.5 -89t88.5 -34t88.5 34t31.5 89t-31.5 89t-88.5 34t-88.5 -34t-31.5 -89
zM366 564l-63 78l-62 -78h-135l119 144h163l116 -144h-138z" />
    <glyph glyph-name="otilde" unicode="&#xf5;" horiz-adv-x="610" 
d="M35 243q0 58 21 105t57.5 80.5t86 51.5t105.5 18t105.5 -18t86 -51.5t57.5 -80.5t21 -105t-21 -105t-57.5 -80.5t-86 -51.5t-105.5 -18t-105.5 18t-86 51.5t-57.5 80.5t-21 105zM185 243q0 -55 31.5 -89t88.5 -34t88.5 34t31.5 89t-31.5 89t-88.5 34t-88.5 -34t-31.5 -89
zM109 570q4 25 14 50t25.5 44.5t37.5 31.5t50 12q25 0 45 -6t42 -15q14 -5 27.5 -10t28.5 -5q17 0 27 10.5t17 25.5h78q-5 -29 -14 -54t-24.5 -43.5t-38 -29.5t-53.5 -11q-22 0 -41.5 6.5t-36.5 14.5t-32.5 14.5t-30.5 6.5q-17 0 -27 -14t-15 -28h-79z" />
    <glyph glyph-name="odieresis" unicode="&#xf6;" horiz-adv-x="610" 
d="M35 243q0 58 21 105t57.5 80.5t86 51.5t105.5 18t105.5 -18t86 -51.5t57.5 -80.5t21 -105t-21 -105t-57.5 -80.5t-86 -51.5t-105.5 -18t-105.5 18t-86 51.5t-57.5 80.5t-21 105zM185 243q0 -55 31.5 -89t88.5 -34t88.5 34t31.5 89t-31.5 89t-88.5 34t-88.5 -34t-31.5 -89
zM200 558q-18 0 -33 7t-26 19t-17.5 27.5t-6.5 32.5q0 16 6.5 31t17.5 26t25.5 18t31.5 7q35 0 61 -23t26 -59t-24 -61t-61 -25zM408 558q-18 0 -33 7t-26 19t-17.5 27.5t-6.5 32.5q0 16 6.5 31t17.5 26t25.5 18t31.5 7q35 0 61 -23t26 -59t-24 -61t-61 -25z" />
    <glyph glyph-name="divide" unicode="&#xf7;" horiz-adv-x="666" 
d="M59 366h548v-126h-548v126zM247 114q0 18 7 33.5t18.5 27t27 18.5t33.5 7t33.5 -7t27 -18.5t18.5 -27t7 -33.5t-7 -33.5t-18.5 -27t-27 -18.5t-33.5 -7t-33.5 7t-27 18.5t-18.5 27t-7 33.5zM247 492q0 18 7 33.5t18.5 27t27 18.5t33.5 7t33.5 -7t27 -18.5t18.5 -27
t7 -33.5t-7 -33.5t-18.5 -27t-27 -18.5t-33.5 -7t-33.5 7t-27 18.5t-18.5 27t-7 33.5z" />
    <glyph glyph-name="oslash" unicode="&#xf8;" horiz-adv-x="610" 
d="M96 76q-29 32 -45 74t-16 93q0 58 21 105t57.5 80.5t86 51.5t105.5 18q48 0 89.5 -13t75.5 -36l67 67l47 -45l-66 -66q27 -32 42 -73t15 -89q0 -58 -21 -105t-57.5 -80.5t-86 -51.5t-105.5 -18q-90 0 -159 46l-73 -73l-47 45zM370 350q-27 16 -65 16q-57 0 -88.5 -34
t-31.5 -89q0 -36 15 -63zM246 134q26 -14 59 -14q57 0 88.5 34t31.5 89q0 31 -12 57z" />
    <glyph glyph-name="ugrave" unicode="&#xf9;" 
d="M521 0h-144v66h-2q-8 -14 -20.5 -28t-30.5 -25t-41 -18t-50 -7q-57 0 -92.5 17.5t-55 48.5t-26 73t-6.5 91v268h150v-238q0 -21 1.5 -43.5t9 -41.5t23 -31t44.5 -12t47 10.5t27.5 28t12.5 39.5t3 46v242h150v-486zM389 564h-132l-173 144h204z" />
    <glyph glyph-name="uacute" unicode="&#xfa;" 
d="M521 0h-144v66h-2q-8 -14 -20.5 -28t-30.5 -25t-41 -18t-50 -7q-57 0 -92.5 17.5t-55 48.5t-26 73t-6.5 91v268h150v-238q0 -21 1.5 -43.5t9 -41.5t23 -31t44.5 -12t47 10.5t27.5 28t12.5 39.5t3 46v242h150v-486zM288 708h204l-173 -144h-132z" />
    <glyph glyph-name="ucircumflex" unicode="&#xfb;" 
d="M521 0h-144v66h-2q-8 -14 -20.5 -28t-30.5 -25t-41 -18t-50 -7q-57 0 -92.5 17.5t-55 48.5t-26 73t-6.5 91v268h150v-238q0 -21 1.5 -43.5t9 -41.5t23 -31t44.5 -12t47 10.5t27.5 28t12.5 39.5t3 46v242h150v-486zM348 564l-63 78l-62 -78h-135l119 144h163l116 -144
h-138z" />
    <glyph glyph-name="udieresis" unicode="&#xfc;" 
d="M521 0h-144v66h-2q-8 -14 -20.5 -28t-30.5 -25t-41 -18t-50 -7q-57 0 -92.5 17.5t-55 48.5t-26 73t-6.5 91v268h150v-238q0 -21 1.5 -43.5t9 -41.5t23 -31t44.5 -12t47 10.5t27.5 28t12.5 39.5t3 46v242h150v-486zM182 558q-18 0 -33 7t-26 19t-17.5 27.5t-6.5 32.5
q0 16 6.5 31t17.5 26t25.5 18t31.5 7q35 0 61 -23t26 -59t-24 -61t-61 -25zM390 558q-18 0 -33 7t-26 19t-17.5 27.5t-6.5 32.5q0 16 6.5 31t17.5 26t25.5 18t31.5 7q35 0 61 -23t26 -59t-24 -61t-61 -25z" />
    <glyph glyph-name="yacute" unicode="&#xfd;" horiz-adv-x="556" 
d="M333 -79q-15 -39 -29 -69t-35.5 -50.5t-54.5 -31t-87 -10.5q-58 0 -112 18l20 123q34 -15 70 -15q25 0 41 5.5t26.5 16t17.5 25.5t15 35l11 28l-213 490h162l125 -321h2l107 321h154zM279 708h204l-173 -144h-132z" />
    <glyph glyph-name="thorn" unicode="&#xfe;" horiz-adv-x="630" 
d="M67 756h150v-322h2q9 15 23.5 26.5t33 20t39 13t41.5 4.5q54 0 98 -18.5t75.5 -52t48.5 -79.5t17 -101q0 -51 -15.5 -97.5t-44 -82.5t-69.5 -57.5t-93 -21.5q-47 0 -87.5 14.5t-66.5 49.5h-2v-280h-150v984zM205 243q0 -55 31.5 -89t88.5 -34t88.5 34t31.5 89t-31.5 89
t-88.5 34t-88.5 -34t-31.5 -89z" />
    <glyph glyph-name="ydieresis" unicode="&#xff;" horiz-adv-x="556" 
d="M333 -79q-15 -39 -29 -69t-35.5 -50.5t-54.5 -31t-87 -10.5q-58 0 -112 18l20 123q34 -15 70 -15q25 0 41 5.5t26.5 16t17.5 25.5t15 35l11 28l-213 490h162l125 -321h2l107 321h154zM173 558q-18 0 -33 7t-26 19t-17.5 27.5t-6.5 32.5q0 16 6.5 31t17.5 26t25.5 18
t31.5 7q35 0 61 -23t26 -59t-24 -61t-61 -25zM381 558q-18 0 -33 7t-26 19t-17.5 27.5t-6.5 32.5q0 16 6.5 31t17.5 26t25.5 18t31.5 7q35 0 61 -23t26 -59t-24 -61t-61 -25z" />
    <glyph glyph-name="Amacron" unicode="&#x100;" horiz-adv-x="741" 
d="M305 708h129l308 -708h-176l-61 150h-275l-59 -150h-172zM365 502l-86 -220h173zM535 787h-340v96h340v-96z" />
    <glyph glyph-name="amacron" unicode="&#x101;" horiz-adv-x="537" 
d="M358 61h-2q-25 -39 -66.5 -56t-87.5 -17q-34 0 -65.5 9.5t-55.5 28.5t-38 47t-14 65q0 42 15.5 71t42 48t60.5 29.5t70.5 15.5t73 6t67.5 1q0 40 -28.5 63.5t-67.5 23.5q-37 0 -67.5 -15.5t-54.5 -42.5l-80 82q42 39 98 58.5t116 19.5q66 0 108.5 -16.5t68 -48.5
t35.5 -78.5t10 -107.5v-247h-138v61zM321 213q-17 0 -42.5 -1.5t-49 -8.5t-40 -21t-16.5 -39q0 -27 23 -40t48 -13q22 0 42.5 6t36.5 17t25.5 28t9.5 40v32h-37zM455 591h-340v96h340v-96z" />
    <glyph glyph-name="Abreve" unicode="&#x102;" horiz-adv-x="741" 
d="M305 708h129l308 -708h-176l-61 150h-275l-59 -150h-172zM365 502l-86 -220h173zM261 904q3 -15 13.5 -24t25 -14.5t31.5 -7.5t34 -2q39 0 66.5 7.5t38.5 40.5h79q-4 -38 -20 -65.5t-40.5 -45t-56 -25.5t-67.5 -8q-35 0 -67.5 7.5t-58 25t-41 45t-17.5 66.5h80z" />
    <glyph glyph-name="abreve" unicode="&#x103;" horiz-adv-x="537" 
d="M358 61h-2q-25 -39 -66.5 -56t-87.5 -17q-34 0 -65.5 9.5t-55.5 28.5t-38 47t-14 65q0 42 15.5 71t42 48t60.5 29.5t70.5 15.5t73 6t67.5 1q0 40 -28.5 63.5t-67.5 23.5q-37 0 -67.5 -15.5t-54.5 -42.5l-80 82q42 39 98 58.5t116 19.5q66 0 108.5 -16.5t68 -48.5
t35.5 -78.5t10 -107.5v-247h-138v61zM321 213q-17 0 -42.5 -1.5t-49 -8.5t-40 -21t-16.5 -39q0 -27 23 -40t48 -13q22 0 42.5 6t36.5 17t25.5 28t9.5 40v32h-37zM181 708q3 -15 13.5 -24t25 -14.5t31.5 -7.5t34 -2q39 0 66.5 7.5t38.5 40.5h79q-4 -38 -20 -65.5t-40.5 -45
t-56 -25.5t-67.5 -8t-68 7.5t-57 25t-41 45t-18 66.5h80z" />
    <glyph glyph-name="Aogonek" unicode="&#x104;" horiz-adv-x="741" 
d="M689 -198q-25 -19 -51 -30.5t-58 -11.5q-42 0 -73.5 24t-31.5 69q0 19 8.5 39.5t21.5 40t29 37t32 30.5l-61 150h-275l-59 -150h-172l306 708h129l308 -708h-107q-12 -12 -24.5 -27t-22.5 -31t-16.5 -32.5t-6.5 -31.5q0 -17 12 -31.5t30 -14.5q14 0 28.5 7t25.5 16z
M365 502l-86 -220h173z" />
    <glyph glyph-name="aogonek" unicode="&#x105;" horiz-adv-x="537" 
d="M358 61h-2q-25 -39 -66.5 -56t-87.5 -17q-35 0 -66 9.5t-55 28.5t-38 47t-14 65q0 42 16 71t42 48t60 29.5t70.5 15.5t73 6t67.5 1q0 40 -28.5 63.5t-67.5 23.5q-37 0 -67.5 -15.5t-54.5 -42.5l-80 82q42 39 98 58.5t116 19.5q66 0 108.5 -16.5t68 -48.5t35.5 -78.5
t10 -107.5v-247h-68q-12 -12 -24.5 -27t-22.5 -31t-16.5 -32.5t-6.5 -31.5q0 -17 12 -31.5t30 -14.5q14 0 28.5 7t25.5 16l28 -53q-25 -19 -51 -30.5t-58 -11.5q-42 0 -73.5 24t-31.5 69q0 19 8.5 39.5t21.5 39.5t29 36.5t31 31.5v61zM321 213q-17 0 -42.5 -1.5t-49 -8.5
t-40 -21t-16.5 -39q0 -27 23 -40t48 -13q22 0 42.5 6t36.5 17t25.5 28t9.5 40v32h-37z" />
    <glyph glyph-name="Cacute" unicode="&#x106;" horiz-adv-x="685" 
d="M535 524q-23 28 -56.5 43t-77.5 15t-81.5 -17t-65 -47.5t-43 -72.5t-15.5 -91q0 -50 15.5 -91.5t42.5 -72t63.5 -47.5t78.5 -17q48 0 85 20t61 56l130 -97q-45 -63 -114 -93t-142 -30q-83 0 -153 26t-121 74.5t-79.5 117.5t-28.5 154t28.5 154t79.5 117.5t121 74.5
t153 26q30 0 62.5 -5.5t64 -17.5t60.5 -32t52 -49zM393 904h204l-173 -144h-132z" />
    <glyph glyph-name="cacute" unicode="&#x107;" horiz-adv-x="482" 
d="M382 329q-11 16 -31 26.5t-43 10.5q-57 0 -88.5 -34t-31.5 -89t31.5 -89t88.5 -34q25 0 43 11t31 26l99 -104q-35 -36 -82.5 -50.5t-90.5 -14.5q-56 0 -105.5 18t-86 51.5t-57.5 80.5t-21 105t21 105t57.5 80.5t86 51.5t105.5 18q43 0 90.5 -14.5t82.5 -50.5zM296 708
h204l-173 -144h-132z" />
    <glyph glyph-name="Ccircumflex" unicode="&#x108;" horiz-adv-x="685" 
d="M535 524q-23 28 -56.5 43t-77.5 15t-81.5 -17t-65 -47.5t-43 -72.5t-15.5 -91q0 -50 15.5 -91.5t42.5 -72t63.5 -47.5t78.5 -17q48 0 85 20t61 56l130 -97q-45 -63 -114 -93t-142 -30q-83 0 -153 26t-121 74.5t-79.5 117.5t-28.5 154t28.5 154t79.5 117.5t121 74.5
t153 26q30 0 62.5 -5.5t64 -17.5t60.5 -32t52 -49zM461 760l-63 78l-62 -78h-135l119 144h163l116 -144h-138z" />
    <glyph glyph-name="ccircumflex" unicode="&#x109;" horiz-adv-x="482" 
d="M382 329q-11 16 -31 26.5t-43 10.5q-57 0 -88.5 -34t-31.5 -89t31.5 -89t88.5 -34q25 0 43 11t31 26l99 -104q-35 -36 -82.5 -50.5t-90.5 -14.5q-56 0 -105.5 18t-86 51.5t-57.5 80.5t-21 105t21 105t57.5 80.5t86 51.5t105.5 18q43 0 90.5 -14.5t82.5 -50.5zM352 564
l-63 78l-62 -78h-135l119 144h163l116 -144h-138z" />
    <glyph glyph-name="Cdotaccent" unicode="&#x10a;" horiz-adv-x="685" 
d="M535 524q-23 28 -56.5 43t-77.5 15t-81.5 -17t-65 -47.5t-43 -72.5t-15.5 -91q0 -50 15.5 -91.5t42.5 -72t63.5 -47.5t78.5 -17q48 0 85 20t61 56l130 -97q-45 -63 -114 -93t-142 -30q-83 0 -153 26t-121 74.5t-79.5 117.5t-28.5 154t28.5 154t79.5 117.5t121 74.5
t153 26q30 0 62.5 -5.5t64 -17.5t60.5 -32t52 -49zM399 754q-18 0 -33 7t-26 19t-17.5 27.5t-6.5 32.5q0 16 6.5 31t17.5 26t25.5 18t31.5 7q35 0 61 -23t26 -59t-24 -61t-61 -25z" />
    <glyph glyph-name="cdotaccent" unicode="&#x10b;" horiz-adv-x="482" 
d="M382 329q-11 16 -31 26.5t-43 10.5q-57 0 -88.5 -34t-31.5 -89t31.5 -89t88.5 -34q25 0 43 11t31 26l99 -104q-35 -36 -82.5 -50.5t-90.5 -14.5q-56 0 -105.5 18t-86 51.5t-57.5 80.5t-21 105t21 105t57.5 80.5t86 51.5t105.5 18q43 0 90.5 -14.5t82.5 -50.5zM290 558
q-18 0 -33 7t-26 19t-17.5 27.5t-6.5 32.5q0 16 6.5 31t17.5 26t25.5 18t31.5 7q35 0 61 -23t26 -59t-24 -61t-61 -25z" />
    <glyph glyph-name="Ccaron" unicode="&#x10c;" horiz-adv-x="685" 
d="M535 524q-23 28 -56.5 43t-77.5 15t-81.5 -17t-65 -47.5t-43 -72.5t-15.5 -91q0 -50 15.5 -91.5t42.5 -72t63.5 -47.5t78.5 -17q48 0 85 20t61 56l130 -97q-45 -63 -114 -93t-142 -30q-83 0 -153 26t-121 74.5t-79.5 117.5t-28.5 154t28.5 154t79.5 117.5t121 74.5
t153 26q30 0 62.5 -5.5t64 -17.5t60.5 -32t52 -49zM335 931l63 -78l62 78h135l-119 -144h-163l-116 144h138z" />
    <glyph glyph-name="ccaron" unicode="&#x10d;" horiz-adv-x="482" 
d="M382 329q-11 16 -31 26.5t-43 10.5q-57 0 -88.5 -34t-31.5 -89t31.5 -89t88.5 -34q25 0 43 11t31 26l99 -104q-35 -36 -82.5 -50.5t-90.5 -14.5q-56 0 -105.5 18t-86 51.5t-57.5 80.5t-21 105t21 105t57.5 80.5t86 51.5t105.5 18q43 0 90.5 -14.5t82.5 -50.5zM226 708
l63 -78l62 78h135l-119 -144h-163l-116 144h138z" />
    <glyph glyph-name="Dcaron" unicode="&#x10e;" horiz-adv-x="759" 
d="M72 708h234q85 0 161.5 -19t133.5 -61.5t90.5 -110.5t33.5 -165q0 -86 -32.5 -151.5t-87.5 -110t-127 -67.5t-151 -23h-255v708zM228 144h81q54 0 100.5 11t80.5 36.5t53.5 67t19.5 101.5q0 52 -19.5 90.5t-52.5 63.5t-77.5 37.5t-93.5 12.5h-92v-420zM277 931l63 -78
l62 78h135l-119 -144h-163l-116 144h138z" />
    <glyph glyph-name="dcaron" unicode="&#x10f;" horiz-adv-x="630" 
d="M563 0h-138v64h-2q-9 -13 -23.5 -26.5t-34 -24.5t-43 -18t-48.5 -7q-54 0 -98 18.5t-75.5 52t-48.5 79.5t-17 101q0 51 15.5 97.5t44 82.5t69.5 57.5t93 21.5q47 0 87.5 -14.5t66.5 -49.5h2v322h150v-756zM425 243q0 55 -31.5 89t-88.5 34t-88.5 -34t-31.5 -89t31.5 -89
t88.5 -34t88.5 34t31.5 89zM657 708h134l-80 -199h-98z" />
    <glyph glyph-name="Dcroat" unicode="&#x110;" horiz-adv-x="759" 
d="M228 420h198v-102h-198v-174h81q54 0 100.5 11t80.5 36.5t53.5 67t19.5 101.5q0 52 -19.5 90.5t-52.5 63.5t-77.5 37.5t-93.5 12.5h-92v-144zM72 318h-60v102h60v288h234q85 0 161.5 -19t133.5 -61.5t90.5 -110.5t33.5 -165q0 -86 -32.5 -151.5t-87.5 -110t-127 -67.5
t-151 -23h-255v318z" />
    <glyph glyph-name="dcroat" unicode="&#x111;" horiz-adv-x="630" 
d="M619 561h-56v-561h-138v64h-2q-9 -13 -24 -26.5t-34 -24.5t-42.5 -18t-48.5 -7q-54 0 -98 18.5t-75.5 52t-48.5 79.5t-17 101q0 51 15.5 97.5t44 82.5t69.5 57.5t93 21.5q48 0 88 -14.5t66 -49.5h2v127h-134v96h134v99h150v-99h56v-96zM425 243q0 55 -31.5 89t-88.5 34
t-88.5 -34t-31.5 -89t31.5 -89t88.5 -34t88.5 34t31.5 89z" />
    <glyph glyph-name="Emacron" unicode="&#x112;" horiz-adv-x="630" 
d="M78 708h481v-144h-325v-132h307v-144h-307v-144h343v-144h-499v708zM494 787h-340v96h340v-96z" />
    <glyph glyph-name="emacron" unicode="&#x113;" 
d="M513 84q-36 -46 -91 -71t-114 -25q-56 0 -105.5 18t-86 51.5t-57.5 80.5t-21 105t21 105t57.5 80.5t86 51.5t105.5 18q52 0 94.5 -18t72 -51.5t45.5 -80.5t16 -105v-47h-348q9 -43 39 -68.5t74 -25.5q37 0 62.5 16.5t44.5 42.5zM386 298q1 38 -25 65t-67 27q-25 0 -44 -8
t-32.5 -20.5t-21 -29t-8.5 -34.5h198zM466 591h-340v96h340v-96z" />
    <glyph glyph-name="Ebreve" unicode="&#x114;" horiz-adv-x="630" 
d="M78 708h481v-144h-325v-132h307v-144h-307v-144h343v-144h-499v708zM220 904q3 -15 13.5 -24t25 -14.5t31.5 -7.5t34 -2q39 0 66.5 7.5t38.5 40.5h79q-4 -38 -20 -65.5t-40.5 -45t-56 -25.5t-67.5 -8q-35 0 -67.5 7.5t-58 25t-41 45t-17.5 66.5h80z" />
    <glyph glyph-name="ebreve" unicode="&#x115;" 
d="M513 84q-36 -46 -91 -71t-114 -25q-56 0 -105.5 18t-86 51.5t-57.5 80.5t-21 105t21 105t57.5 80.5t86 51.5t105.5 18q52 0 94.5 -18t72 -51.5t45.5 -80.5t16 -105v-47h-348q9 -43 39 -68.5t74 -25.5q37 0 62.5 16.5t44.5 42.5zM386 298q1 38 -25 65t-67 27q-25 0 -44 -8
t-32.5 -20.5t-21 -29t-8.5 -34.5h198zM192 708q3 -15 13.5 -24t25 -14.5t31.5 -7.5t34 -2q39 0 66.5 7.5t38.5 40.5h79q-4 -38 -20 -65.5t-40.5 -45t-56 -25.5t-67.5 -8t-68 7.5t-57 25t-41 45t-18 66.5h80z" />
    <glyph glyph-name="Edotaccent" unicode="&#x116;" horiz-adv-x="630" 
d="M78 708h481v-144h-325v-132h307v-144h-307v-144h343v-144h-499v708zM331 754q-18 0 -33 7t-26 19t-17.5 27.5t-6.5 32.5q0 16 6.5 31t17.5 26t25.5 18t31.5 7q35 0 61 -23t26 -59t-24 -61t-61 -25z" />
    <glyph glyph-name="edotaccent" unicode="&#x117;" 
d="M513 84q-36 -46 -91 -71t-114 -25q-56 0 -105.5 18t-86 51.5t-57.5 80.5t-21 105t21 105t57.5 80.5t86 51.5t105.5 18q52 0 94.5 -18t72 -51.5t45.5 -80.5t16 -105v-47h-348q9 -43 39 -68.5t74 -25.5q37 0 62.5 16.5t44.5 42.5zM386 298q1 38 -25 65t-67 27q-25 0 -44 -8
t-32.5 -20.5t-21 -29t-8.5 -34.5h198zM301 558q-18 0 -33 7t-26 19t-17.5 27.5t-6.5 32.5q0 16 6.5 31t17.5 26t25.5 18t31.5 7q35 0 61 -23t26 -59t-24 -61t-61 -25z" />
    <glyph glyph-name="Eogonek" unicode="&#x118;" horiz-adv-x="630" 
d="M78 708h481v-144h-325v-132h307v-144h-307v-144h343v-144h-64q-12 -12 -24.5 -27t-22.5 -31t-16.5 -32.5t-6.5 -31.5q0 -17 12 -31.5t30 -14.5q14 0 28.5 7t25.5 16l28 -53q-25 -19 -51 -30.5t-58 -11.5q-42 0 -73.5 24t-31.5 69q0 19 8.5 39.5t21.5 39.5t29 36.5
t31 31.5h-365v708z" />
    <glyph glyph-name="eogonek" unicode="&#x119;" 
d="M421 -198q-25 -19 -51 -30.5t-58 -11.5q-42 0 -73.5 24t-31.5 69q0 18 6.5 36t17.5 35.5t25 34t28 30.5q-52 4 -97 23.5t-78 52.5t-52 78t-19 100q0 58 21 105t57.5 80.5t86 51.5t105.5 18q52 0 94.5 -18t72 -51.5t45.5 -80.5t16 -105v-47h-348q9 -43 38.5 -68.5
t74.5 -25.5q37 0 62.5 16.5t44.5 42.5l105 -77q-29 -36 -68.5 -59t-84.5 -32q-12 -12 -23 -26t-20 -29t-14.5 -30.5t-5.5 -29.5q0 -17 12 -31.5t30 -14.5q14 0 28.5 7t25.5 16zM386 298q1 38 -25 65t-67 27q-25 0 -44 -8t-32.5 -20.5t-21 -29t-8.5 -34.5h198z" />
    <glyph glyph-name="Ecaron" unicode="&#x11a;" horiz-adv-x="630" 
d="M78 708h481v-144h-325v-132h307v-144h-307v-144h343v-144h-499v708zM259 931l63 -78l62 78h135l-119 -144h-163l-116 144h138z" />
    <glyph glyph-name="ecaron" unicode="&#x11b;" 
d="M513 84q-36 -46 -91 -71t-114 -25q-56 0 -105.5 18t-86 51.5t-57.5 80.5t-21 105t21 105t57.5 80.5t86 51.5t105.5 18q52 0 94.5 -18t72 -51.5t45.5 -80.5t16 -105v-47h-348q9 -43 39 -68.5t74 -25.5q37 0 62.5 16.5t44.5 42.5zM386 298q1 38 -25 65t-67 27q-25 0 -44 -8
t-32.5 -20.5t-21 -29t-8.5 -34.5h198zM231 708l63 -78l62 78h135l-119 -144h-163l-116 144h138z" />
    <glyph glyph-name="Gcircumflex" unicode="&#x11c;" horiz-adv-x="778" 
d="M713 50q-69 -36 -144 -52t-153 -16q-83 0 -153 26t-121 74.5t-79.5 117.5t-28.5 154t28.5 154t79.5 117.5t121 74.5t153 26q85 0 156.5 -20.5t125.5 -70.5l-110 -120q-32 33 -72 50t-100 17q-50 0 -90.5 -17t-69.5 -47.5t-44.5 -72.5t-15.5 -91q0 -50 15.5 -91.5
t44.5 -72t69.5 -47.5t90.5 -17q51 0 88 11.5t59 23.5v115h-127v144h277v-370zM473 760l-63 78l-62 -78h-135l119 144h163l116 -144h-138z" />
    <glyph glyph-name="gcircumflex" unicode="&#x11d;" horiz-adv-x="630" 
d="M563 41q0 -138 -69.5 -209.5t-211.5 -71.5q-65 0 -128 14.5t-116 56.5l83 124q35 -29 73.5 -46t84.5 -17q69 0 101.5 33.5t32.5 85.5v47h-2q-26 -35 -64.5 -49.5t-72.5 -14.5q-54 0 -98 18.5t-75.5 52t-48.5 79.5t-17 101q0 48 15.5 94t44 81t69.5 56.5t93 21.5
q32 0 58.5 -7t47.5 -18t36 -24.5t24 -26.5h2v64h138v-445zM185 246q0 -24 9 -45.5t25.5 -38t38 -26.5t47.5 -10q25 0 47 10t38.5 26.5t25.5 38t9 45.5t-9 45.5t-25.5 38t-38.5 26.5t-47 10q-26 0 -47.5 -10t-38 -26.5t-25.5 -38t-9 -45.5zM372 564l-63 78l-62 -78h-135
l119 144h163l116 -144h-138z" />
    <glyph glyph-name="Gbreve" unicode="&#x11e;" horiz-adv-x="778" 
d="M713 50q-69 -36 -144 -52t-153 -16q-83 0 -153 26t-121 74.5t-79.5 117.5t-28.5 154t28.5 154t79.5 117.5t121 74.5t153 26q85 0 156.5 -20.5t125.5 -70.5l-110 -120q-32 33 -72 50t-100 17q-50 0 -90.5 -17t-69.5 -47.5t-44.5 -72.5t-15.5 -91q0 -50 15.5 -91.5
t44.5 -72t69.5 -47.5t90.5 -17q51 0 88 11.5t59 23.5v115h-127v144h277v-370zM308 904q3 -15 13.5 -24t25 -14.5t31.5 -7.5t34 -2q39 0 66.5 7.5t38.5 40.5h79q-4 -38 -20 -65.5t-40.5 -45t-56 -25.5t-67.5 -8q-35 0 -67.5 7.5t-58 25t-41 45t-17.5 66.5h80z" />
    <glyph glyph-name="gbreve" unicode="&#x11f;" horiz-adv-x="630" 
d="M563 41q0 -138 -69.5 -209.5t-211.5 -71.5q-65 0 -128 14.5t-116 56.5l83 124q35 -29 73.5 -46t84.5 -17q69 0 101.5 33.5t32.5 85.5v47h-2q-26 -35 -64.5 -49.5t-72.5 -14.5q-54 0 -98 18.5t-75.5 52t-48.5 79.5t-17 101q0 48 15.5 94t44 81t69.5 56.5t93 21.5
q32 0 58.5 -7t47.5 -18t36 -24.5t24 -26.5h2v64h138v-445zM185 246q0 -24 9 -45.5t25.5 -38t38 -26.5t47.5 -10q25 0 47 10t38.5 26.5t25.5 38t9 45.5t-9 45.5t-25.5 38t-38.5 26.5t-47 10q-26 0 -47.5 -10t-38 -26.5t-25.5 -38t-9 -45.5zM217 708q3 -15 13.5 -24t25 -14.5
t31.5 -7.5t34 -2q39 0 66.5 7.5t38.5 40.5h79q-4 -38 -20 -65.5t-40.5 -45t-56 -25.5t-67.5 -8t-68 7.5t-57 25t-41 45t-18 66.5h80z" />
    <glyph glyph-name="Gdotaccent" unicode="&#x120;" horiz-adv-x="778" 
d="M713 50q-69 -36 -144 -52t-153 -16q-83 0 -153 26t-121 74.5t-79.5 117.5t-28.5 154t28.5 154t79.5 117.5t121 74.5t153 26q85 0 156.5 -20.5t125.5 -70.5l-110 -120q-32 33 -72 50t-100 17q-50 0 -90.5 -17t-69.5 -47.5t-44.5 -72.5t-15.5 -91q0 -50 15.5 -91.5
t44.5 -72t69.5 -47.5t90.5 -17q51 0 88 11.5t59 23.5v115h-127v144h277v-370zM411 754q-18 0 -33 7t-26 19t-17.5 27.5t-6.5 32.5q0 16 6.5 31t17.5 26t25.5 18t31.5 7q35 0 61 -23t26 -59t-24 -61t-61 -25z" />
    <glyph glyph-name="gdotaccent" unicode="&#x121;" horiz-adv-x="630" 
d="M563 41q0 -138 -69.5 -209.5t-211.5 -71.5q-65 0 -128 14.5t-116 56.5l83 124q35 -29 73.5 -46t84.5 -17q69 0 101.5 33.5t32.5 85.5v47h-2q-26 -35 -64.5 -49.5t-72.5 -14.5q-54 0 -98 18.5t-75.5 52t-48.5 79.5t-17 101q0 48 15.5 94t44 81t69.5 56.5t93 21.5
q32 0 58.5 -7t47.5 -18t36 -24.5t24 -26.5h2v64h138v-445zM185 246q0 -24 9 -45.5t25.5 -38t38 -26.5t47.5 -10q25 0 47 10t38.5 26.5t25.5 38t9 45.5t-9 45.5t-25.5 38t-38.5 26.5t-47 10q-26 0 -47.5 -10t-38 -26.5t-25.5 -38t-9 -45.5zM320 558q-18 0 -33 7t-26 19
t-17.5 27.5t-6.5 32.5q0 16 6.5 31t17.5 26t25.5 18t31.5 7q35 0 61 -23t26 -59t-24 -61t-61 -25z" />
    <glyph glyph-name="Gcommaaccent" unicode="&#x122;" horiz-adv-x="778" 
d="M713 50q-69 -36 -144 -52t-153 -16q-83 0 -153 26t-121 74.5t-79.5 117.5t-28.5 154t28.5 154t79.5 117.5t121 74.5t153 26q85 0 156.5 -20.5t125.5 -70.5l-110 -120q-32 33 -72 50t-100 17q-50 0 -90.5 -17t-69.5 -47.5t-44.5 -72.5t-15.5 -91q0 -50 15.5 -91.5
t44.5 -72t69.5 -47.5t90.5 -17q51 0 88 11.5t59 23.5v115h-127v144h277v-370zM365 -61h144l-90 -199h-118z" />
    <glyph glyph-name="gcommaaccent" unicode="&#x123;" horiz-adv-x="630" 
d="M563 41q0 -138 -69.5 -209.5t-211.5 -71.5q-65 0 -128 14.5t-116 56.5l83 124q35 -29 73.5 -46t84.5 -17q69 0 101.5 33.5t32.5 85.5v47h-2q-26 -35 -64.5 -49.5t-72.5 -14.5q-54 0 -98 18.5t-75.5 52t-48.5 79.5t-17 101q0 48 15.5 94t44 81t69.5 56.5t93 21.5
q32 0 58.5 -7t47.5 -18t36 -24.5t24 -26.5h2v64h138v-445zM185 246q0 -24 9 -45.5t25.5 -38t38 -26.5t47.5 -10q25 0 47 10t38.5 26.5t25.5 38t9 45.5t-9 45.5t-25.5 38t-38.5 26.5t-47 10q-26 0 -47.5 -10t-38 -26.5t-25.5 -38t-9 -45.5zM372 584h-144l90 199h118z" />
    <glyph glyph-name="Hcircumflex" unicode="&#x124;" horiz-adv-x="759" 
d="M72 708h156v-264h303v264h156v-708h-156v306h-303v-306h-156v708zM440 760l-63 78l-62 -78h-135l119 144h163l116 -144h-138z" />
    <glyph glyph-name="hcircumflex" unicode="&#x125;" 
d="M203 756v-336h2q5 14 17 28t29 25t40 18t50 7q57 0 92 -17.5t54.5 -48.5t26.5 -73t7 -91v-268h-150v238q0 21 -1.5 43.5t-9 41.5t-23 31t-44.5 12t-47 -10.5t-27.5 -28t-12.5 -39.5t-3 -46v-242h-150v756h150zM333 800l-63 78l-62 -78h-135l119 144h163l116 -144h-138z
" />
    <glyph glyph-name="Hbar" unicode="&#x126;" horiz-adv-x="759" 
d="M72 708h156v-88h303v88h156v-708h-156v306h-303v-306h-156v708zM531 444v80h-303v-80h303z" />
    <glyph glyph-name="hbar" unicode="&#x127;" 
d="M337 561h-134v-141h2q5 14 16.5 28t29 25t40.5 18t50 7q57 0 92 -17.5t54.5 -48.5t26.5 -73t7 -91v-268h-150v238q0 21 -1.5 43.5t-9 41.5t-23.5 31t-44 12q-29 0 -47 -10.5t-27.5 -28t-12.5 -39.5t-3 -46v-242h-150v561h-56v96h56v99h150v-99h134v-96z" />
    <glyph glyph-name="Itilde" unicode="&#x128;" horiz-adv-x="296" 
d="M70 708h156v-708h-156v708zM-47 766q4 25 14 50t25.5 44.5t37.5 31.5t50 12q25 0 45 -6t42 -15q14 -5 27.5 -10t28.5 -5q17 0 27 10.5t17 25.5h78q-5 -29 -14 -54t-24.5 -43.5t-38 -29.5t-53.5 -11q-22 0 -41.5 6.5t-36.5 14.5t-32.5 14.5t-30.5 6.5q-17 0 -27 -14
t-15 -28h-79z" />
    <glyph glyph-name="itilde" unicode="&#x129;" horiz-adv-x="260" 
d="M55 486h150v-486h-150v486zM-64 570q4 25 14 50t25.5 44.5t37.5 31.5t50 12q25 0 45 -6t42 -15q14 -5 27.5 -10t28.5 -5q17 0 27 10.5t17 25.5h78q-5 -29 -14 -54t-24.5 -43.5t-38 -29.5t-53.5 -11q-22 0 -41.5 6.5t-36.5 14.5t-32.5 14.5t-30.5 6.5q-17 0 -27 -14
t-15 -28h-79z" />
    <glyph glyph-name="Imacron" unicode="&#x12a;" horiz-adv-x="296" 
d="M70 708h156v-708h-156v708zM317 787h-340v96h340v-96z" />
    <glyph glyph-name="imacron" unicode="&#x12b;" horiz-adv-x="260" 
d="M55 486h150v-486h-150v486zM302 591h-340v96h340v-96z" />
    <glyph glyph-name="Iogonek" unicode="&#x12e;" horiz-adv-x="296" 
d="M70 708h156v-708h-86q-12 -12 -24.5 -27t-22.5 -31t-16.5 -32.5t-6.5 -31.5q0 -17 12 -31.5t30 -14.5q14 0 28.5 7t25.5 16l28 -53q-25 -19 -51 -30.5t-58 -11.5q-42 0 -73.5 24t-31.5 69q0 19 8.5 39.5t21.5 39.5t29 36.5t31 31.5v708z" />
    <glyph glyph-name="iogonek" unicode="&#x12f;" horiz-adv-x="260" 
d="M55 486h150v-486h-51q-12 -12 -24.5 -27t-22.5 -31t-16.5 -32.5t-6.5 -31.5q0 -17 12 -31.5t30 -14.5q14 0 28.5 7t25.5 16l28 -53q-25 -19 -51 -30.5t-58 -11.5q-42 0 -73.5 24t-31.5 69q0 19 8.5 39.5t21.5 39.5t29 36.5t31 31.5h-29v486zM43 639q0 36 25.5 61.5
t61.5 25.5t61.5 -25.5t25.5 -61.5t-25.5 -61.5t-61.5 -25.5t-61.5 25.5t-25.5 61.5z" />
    <glyph glyph-name="Idotaccent" unicode="&#x130;" horiz-adv-x="296" 
d="M70 708h156v-708h-156v708zM153 754q-18 0 -33 7t-26 19t-17.5 27.5t-6.5 32.5q0 16 6.5 31t17.5 26t25.5 18t31.5 7q35 0 61 -23t26 -59t-24 -61t-61 -25z" />
    <glyph glyph-name="dotlessi" unicode="&#x131;" horiz-adv-x="260" 
d="M55 486h150v-486h-150v486z" />
    <glyph glyph-name="Jcircumflex" unicode="&#x134;" horiz-adv-x="500" 
d="M438 237q0 -49 -8.5 -95t-32.5 -81.5t-68.5 -57t-116.5 -21.5q-84 0 -142 40t-75 125l143 35q3 -26 23.5 -44t46.5 -18q27 0 42 13.5t22 33.5t8.5 43.5t1.5 43.5v454h156v-471zM422 760l-63 78l-62 -78h-135l119 144h163l116 -144h-138z" />
    <glyph glyph-name="jcircumflex" unicode="&#x135;" horiz-adv-x="260" 
d="M205 -36q0 -47 -9 -84.5t-30 -64t-55.5 -41t-85.5 -14.5q-17 0 -35 1.5t-35 6.5l8 133q18 -9 39 -9q19 0 30 10t16 25t6 32t1 31v496h150v-522zM191 564l-63 78l-62 -78h-135l119 144h163l116 -144h-138z" />
    <glyph glyph-name="Kcommaaccent" unicode="&#x136;" horiz-adv-x="722" 
d="M78 708h156v-294l275 294h204l-315 -329l342 -379h-218l-288 336v-336h-156v708zM296 -61h144l-90 -199h-118z" />
    <glyph glyph-name="kcommaaccent" unicode="&#x137;" horiz-adv-x="556" 
d="M53 756h150v-462l166 192h184l-193 -219l198 -267h-189l-164 246h-2v-246h-150v756zM206 -61h144l-90 -199h-118z" />
    <glyph glyph-name="Lacute" unicode="&#x139;" horiz-adv-x="537" 
d="M78 708h156v-564h289v-144h-445v708zM157 904h204l-173 -144h-132z" />
    <glyph glyph-name="lacute" unicode="&#x13a;" horiz-adv-x="260" 
d="M55 756h150v-756h-150v756zM146 944h204l-173 -144h-132z" />
    <glyph glyph-name="Lcommaaccent" unicode="&#x13b;" horiz-adv-x="537" 
d="M78 708h156v-564h289v-144h-445v708zM232 -61h144l-90 -199h-118z" />
    <glyph glyph-name="lcommaaccent" unicode="&#x13c;" horiz-adv-x="260" 
d="M55 756h150v-756h-150v756zM79 -61h144l-90 -199h-118z" />
    <glyph glyph-name="Lcaron" unicode="&#x13d;" horiz-adv-x="537" 
d="M78 708h156v-564h289v-144h-445v708zM356 708h134l-80 -199h-98z" />
    <glyph glyph-name="lcaron" unicode="&#x13e;" horiz-adv-x="260" 
d="M55 756h150v-756h-150v756zM301 708h134l-80 -199h-98z" />
    <glyph glyph-name="Ldot" unicode="&#x13f;" horiz-adv-x="537" 
d="M78 708h156v-564h289v-144h-445v708zM408 319q-18 0 -33 7t-26 19t-17.5 27.5t-6.5 32.5q0 16 6.5 31t17.5 26t25.5 18t31.5 7q35 0 61 -23t26 -59t-24 -61t-61 -25z" />
    <glyph glyph-name="ldot" unicode="&#x140;" horiz-adv-x="400" 
d="M55 756h150v-756h-150v756zM326 325q-18 0 -33 7t-26 19t-17.5 27.5t-6.5 32.5q0 16 6.5 31t17.5 26t25.5 18t31.5 7q35 0 61 -23t26 -59t-24 -61t-61 -25z" />
    <glyph glyph-name="Lslash" unicode="&#x141;" horiz-adv-x="537" 
d="M78 160l-60 -52v132l60 52v416h156v-281l210 185v-130l-210 -184v-154h289v-144h-445v160z" />
    <glyph glyph-name="lslash" unicode="&#x142;" horiz-adv-x="260" 
d="M55 248l-60 -61v129l60 61v379h150v-229l60 61v-129l-60 -61v-398h-150v248z" />
    <glyph glyph-name="Nacute" unicode="&#x143;" horiz-adv-x="815" 
d="M72 708h212l301 -492h2v492h156v-708h-204l-309 504h-2v-504h-156v708zM424 904h204l-173 -144h-132z" />
    <glyph glyph-name="nacute" unicode="&#x144;" 
d="M53 486h144v-66h2q7 14 20 28t31 25t41 18t50 7q57 0 92 -17.5t54.5 -48.5t26.5 -73t7 -91v-268h-150v238q0 21 -1.5 43.5t-9 41.5t-23 31t-44.5 12t-47 -10.5t-27.5 -28t-12.5 -39.5t-3 -46v-242h-150v486zM262 708h204l-173 -144h-132z" />
    <glyph glyph-name="Ncommaaccent" unicode="&#x145;" horiz-adv-x="815" 
d="M72 708h212l301 -492h2v492h156v-708h-204l-309 504h-2v-504h-156v708zM337 -61h144l-90 -199h-118z" />
    <glyph glyph-name="ncommaaccent" unicode="&#x146;" 
d="M53 486h144v-66h2q7 14 20 28t31 25t41 18t50 7q57 0 92 -17.5t54.5 -48.5t26.5 -73t7 -91v-268h-150v238q0 21 -1.5 43.5t-9 41.5t-23 31t-44.5 12t-47 -10.5t-27.5 -28t-12.5 -39.5t-3 -46v-242h-150v486zM228 -61h144l-90 -199h-118z" />
    <glyph glyph-name="Ncaron" unicode="&#x147;" horiz-adv-x="815" 
d="M72 708h212l301 -492h2v492h156v-708h-204l-309 504h-2v-504h-156v708zM379 931l63 -78l62 78h135l-119 -144h-163l-116 144h138z" />
    <glyph glyph-name="ncaron" unicode="&#x148;" 
d="M53 486h144v-66h2q7 14 20 28t31 25t41 18t50 7q57 0 92 -17.5t54.5 -48.5t26.5 -73t7 -91v-268h-150v238q0 21 -1.5 43.5t-9 41.5t-23 31t-44.5 12t-47 -10.5t-27.5 -28t-12.5 -39.5t-3 -46v-242h-150v486zM222 708l63 -78l62 78h135l-119 -144h-163l-116 144h138z" />
    <glyph glyph-name="Omacron" unicode="&#x14c;" horiz-adv-x="832" 
d="M34 354q0 85 28.5 154t79.5 117.5t121 74.5t153 26t153 -26t121 -74.5t79.5 -117.5t28.5 -154t-28.5 -154t-79.5 -117.5t-121 -74.5t-153 -26t-153 26t-121 74.5t-79.5 117.5t-28.5 154zM196 354q0 -50 15.5 -91.5t44.5 -72t69.5 -47.5t90.5 -17t90.5 17t69.5 47.5
t44.5 72t15.5 91.5q0 49 -15.5 91t-44.5 72.5t-69.5 47.5t-90.5 17t-90.5 -17t-69.5 -47.5t-44.5 -72.5t-15.5 -91zM585 787h-340v96h340v-96z" />
    <glyph glyph-name="omacron" unicode="&#x14d;" horiz-adv-x="610" 
d="M35 243q0 58 21 105t57.5 80.5t86 51.5t105.5 18t105.5 -18t86 -51.5t57.5 -80.5t21 -105t-21 -105t-57.5 -80.5t-86 -51.5t-105.5 -18t-105.5 18t-86 51.5t-57.5 80.5t-21 105zM185 243q0 -55 31.5 -89t88.5 -34t88.5 34t31.5 89t-31.5 89t-88.5 34t-88.5 -34t-31.5 -89
zM475 591h-340v96h340v-96z" />
    <glyph glyph-name="Obreve" unicode="&#x14e;" horiz-adv-x="832" 
d="M34 354q0 85 28.5 154t79.5 117.5t121 74.5t153 26t153 -26t121 -74.5t79.5 -117.5t28.5 -154t-28.5 -154t-79.5 -117.5t-121 -74.5t-153 -26t-153 26t-121 74.5t-79.5 117.5t-28.5 154zM196 354q0 -50 15.5 -91.5t44.5 -72t69.5 -47.5t90.5 -17t90.5 17t69.5 47.5
t44.5 72t15.5 91.5q0 49 -15.5 91t-44.5 72.5t-69.5 47.5t-90.5 17t-90.5 -17t-69.5 -47.5t-44.5 -72.5t-15.5 -91zM311 904q3 -15 13.5 -24t25 -14.5t31.5 -7.5t34 -2q39 0 66.5 7.5t38.5 40.5h79q-4 -38 -20 -65.5t-40.5 -45t-56 -25.5t-67.5 -8q-35 0 -67.5 7.5t-58 25
t-41 45t-17.5 66.5h80z" />
    <glyph glyph-name="obreve" unicode="&#x14f;" horiz-adv-x="610" 
d="M35 243q0 58 21 105t57.5 80.5t86 51.5t105.5 18t105.5 -18t86 -51.5t57.5 -80.5t21 -105t-21 -105t-57.5 -80.5t-86 -51.5t-105.5 -18t-105.5 18t-86 51.5t-57.5 80.5t-21 105zM185 243q0 -55 31.5 -89t88.5 -34t88.5 34t31.5 89t-31.5 89t-88.5 34t-88.5 -34t-31.5 -89
zM201 708q3 -15 13.5 -24t25 -14.5t31.5 -7.5t34 -2q39 0 66.5 7.5t38.5 40.5h79q-4 -38 -20 -65.5t-40.5 -45t-56 -25.5t-67.5 -8t-68 7.5t-57 25t-41 45t-18 66.5h80z" />
    <glyph glyph-name="Ohungarumlaut" unicode="&#x150;" horiz-adv-x="832" 
d="M34 354q0 85 28.5 154t79.5 117.5t121 74.5t153 26t153 -26t121 -74.5t79.5 -117.5t28.5 -154t-28.5 -154t-79.5 -117.5t-121 -74.5t-153 -26t-153 26t-121 74.5t-79.5 117.5t-28.5 154zM196 354q0 -50 15.5 -91.5t44.5 -72t69.5 -47.5t90.5 -17t90.5 17t69.5 47.5
t44.5 72t15.5 91.5q0 49 -15.5 91t-44.5 72.5t-69.5 47.5t-90.5 17t-90.5 -17t-69.5 -47.5t-44.5 -72.5t-15.5 -91zM316 904h204l-173 -144h-132zM580 904h204l-173 -144h-132z" />
    <glyph glyph-name="ohungarumlaut" unicode="&#x151;" horiz-adv-x="610" 
d="M35 243q0 58 21 105t57.5 80.5t86 51.5t105.5 18t105.5 -18t86 -51.5t57.5 -80.5t21 -105t-21 -105t-57.5 -80.5t-86 -51.5t-105.5 -18t-105.5 18t-86 51.5t-57.5 80.5t-21 105zM185 243q0 -55 31.5 -89t88.5 -34t88.5 34t31.5 89t-31.5 89t-88.5 34t-88.5 -34t-31.5 -89
zM191 708h204l-173 -144h-132zM455 708h204l-173 -144h-132z" />
    <glyph glyph-name="Racute" unicode="&#x154;" horiz-adv-x="648" 
d="M72 708h274q54 0 102.5 -10.5t85 -35t58 -66t21.5 -103.5q0 -75 -39 -127.5t-114 -66.5l180 -299h-187l-148 283h-77v-283h-156v708zM228 415h92q21 0 44.5 1.5t42.5 9t31.5 23.5t12.5 45q0 27 -11 43t-28 24.5t-39 11.5t-43 3h-102v-161zM291 904h204l-173 -144h-132z
" />
    <glyph glyph-name="racute" unicode="&#x155;" horiz-adv-x="407" 
d="M53 486h150v-78h2q24 45 57 67.5t83 22.5q13 0 26 -1t24 -4v-137q-16 5 -31.5 7.5t-32.5 2.5q-43 0 -68 -12t-38.5 -33.5t-17.5 -51.5t-4 -66v-203h-150v486zM216 708h204l-173 -144h-132z" />
    <glyph glyph-name="Rcommaaccent" unicode="&#x156;" horiz-adv-x="648" 
d="M72 708h274q54 0 102.5 -10.5t85 -35t58 -66t21.5 -103.5q0 -75 -39 -127.5t-114 -66.5l180 -299h-187l-148 283h-77v-283h-156v708zM228 415h92q21 0 44.5 1.5t42.5 9t31.5 23.5t12.5 45q0 27 -11 43t-28 24.5t-39 11.5t-43 3h-102v-161zM253 -61h144l-90 -199h-118z
" />
    <glyph glyph-name="rcommaaccent" unicode="&#x157;" horiz-adv-x="407" 
d="M53 486h150v-78h2q24 45 57 67.5t83 22.5q13 0 26 -1t24 -4v-137q-16 5 -31.5 7.5t-32.5 2.5q-43 0 -68 -12t-38.5 -33.5t-17.5 -51.5t-4 -66v-203h-150v486zM122 -61h144l-90 -199h-118z" />
    <glyph glyph-name="Rcaron" unicode="&#x158;" horiz-adv-x="648" 
d="M72 708h274q54 0 102.5 -10.5t85 -35t58 -66t21.5 -103.5q0 -75 -39 -127.5t-114 -66.5l180 -299h-187l-148 283h-77v-283h-156v708zM228 415h92q21 0 44.5 1.5t42.5 9t31.5 23.5t12.5 45q0 27 -11 43t-28 24.5t-39 11.5t-43 3h-102v-161zM252 931l63 -78l62 78h135
l-119 -144h-163l-116 144h138z" />
    <glyph glyph-name="rcaron" unicode="&#x159;" horiz-adv-x="407" 
d="M53 486h150v-78h2q24 45 57 67.5t83 22.5q13 0 26 -1t24 -4v-137q-16 5 -31.5 7.5t-32.5 2.5q-43 0 -68 -12t-38.5 -33.5t-17.5 -51.5t-4 -66v-203h-150v486zM147 708l63 -78l62 78h135l-119 -144h-163l-116 144h138z" />
    <glyph glyph-name="Sacute" unicode="&#x15a;" 
d="M422 535q-19 24 -51.5 35.5t-61.5 11.5q-17 0 -35 -4t-34 -12.5t-26 -22.5t-10 -34q0 -32 24 -49t60.5 -29t78.5 -24t78.5 -34t60.5 -59t24 -99q0 -59 -22 -103t-59.5 -73t-87 -43t-104.5 -14q-69 0 -128 21t-110 68l111 122q24 -32 60.5 -49.5t75.5 -17.5q19 0 38.5 4.5
t35 13.5t25 23t9.5 33q0 32 -24.5 50.5t-61.5 31.5t-80 26t-80 35t-61.5 58t-24.5 95q0 57 22.5 100t60 72t86.5 43.5t101 14.5q60 0 116 -17t101 -57zM296 904h204l-173 -144h-132z" />
    <glyph glyph-name="sacute" unicode="&#x15b;" horiz-adv-x="463" 
d="M328 343q-33 41 -87 41q-19 0 -37 -9t-18 -31q0 -18 18.5 -26.5t47 -15t61 -14t61 -23.5t47 -43.5t18.5 -73.5q0 -47 -20.5 -77.5t-52.5 -49t-72 -26t-79 -7.5q-51 0 -103 14.5t-88 51.5l91 101q21 -26 46.5 -39.5t59.5 -13.5q26 0 47 7.5t21 27.5q0 19 -18.5 28.5
t-47 16t-61 14t-61 22.5t-47 42.5t-18.5 73.5q0 43 17.5 74t46 51t65.5 29.5t75 9.5q48 0 97 -14t83 -50zM242 708h204l-173 -144h-132z" />
    <glyph glyph-name="Scircumflex" unicode="&#x15c;" 
d="M422 535q-19 24 -51.5 35.5t-61.5 11.5q-17 0 -35 -4t-34 -12.5t-26 -22.5t-10 -34q0 -32 24 -49t60.5 -29t78.5 -24t78.5 -34t60.5 -59t24 -99q0 -59 -22 -103t-59.5 -73t-87 -43t-104.5 -14q-69 0 -128 21t-110 68l111 122q24 -32 60.5 -49.5t75.5 -17.5q19 0 38.5 4.5
t35 13.5t25 23t9.5 33q0 32 -24.5 50.5t-61.5 31.5t-80 26t-80 35t-61.5 58t-24.5 95q0 57 22.5 100t60 72t86.5 43.5t101 14.5q60 0 116 -17t101 -57zM358 760l-63 78l-62 -78h-135l119 144h163l116 -144h-138z" />
    <glyph glyph-name="scircumflex" unicode="&#x15d;" horiz-adv-x="463" 
d="M328 343q-33 41 -87 41q-19 0 -37 -9t-18 -31q0 -18 18.5 -26.5t47 -15t61 -14t61 -23.5t47 -43.5t18.5 -73.5q0 -47 -20.5 -77.5t-52.5 -49t-72 -26t-79 -7.5q-51 0 -103 14.5t-88 51.5l91 101q21 -26 46.5 -39.5t59.5 -13.5q26 0 47 7.5t21 27.5q0 19 -18.5 28.5
t-47 16t-61 14t-61 22.5t-47 42.5t-18.5 73.5q0 43 17.5 74t46 51t65.5 29.5t75 9.5q48 0 97 -14t83 -50zM300 564l-63 78l-62 -78h-135l119 144h163l116 -144h-138z" />
    <glyph glyph-name="Scedilla" unicode="&#x15e;" 
d="M422 535q-19 24 -51.5 35.5t-61.5 11.5q-17 0 -35 -4t-34 -12.5t-26 -22.5t-10 -34q0 -32 24 -49t60.5 -29t78.5 -24t78.5 -34t60.5 -59t24 -99q0 -53 -17.5 -93t-47.5 -68.5t-70.5 -45t-86.5 -22.5l-31 -46q22 0 44.5 -2.5t40.5 -11t29.5 -25t11.5 -44.5
q0 -27 -14.5 -46t-36 -30t-45.5 -16t-43 -5q-30 0 -64.5 8.5t-60.5 21.5l25 47q12 -5 31.5 -11t45.5 -6q12 0 23.5 1.5t21 5t15.5 9.5t6 16q0 18 -17.5 26t-32.5 8t-36 -8l-32 29l50 76q-63 2 -117.5 22.5t-102.5 65.5l111 122q24 -32 60.5 -49.5t75.5 -17.5q19 0 38.5 4.5
t35 13.5t25 23t9.5 33q0 32 -24.5 50.5t-61.5 31.5t-80 26t-80 35t-61.5 58t-24.5 95q0 57 22.5 100t60 72t86 43.5t101.5 14.5q60 0 116 -17t101 -57z" />
    <glyph glyph-name="scedilla" unicode="&#x15f;" horiz-adv-x="463" 
d="M328 343q-33 41 -87 41q-19 0 -37 -9t-18 -31q0 -18 18.5 -26.5t47 -15t61 -14t61 -23.5t47 -43.5t18.5 -73.5q0 -38 -14 -65.5t-37 -46t-53 -29.5t-62 -15l-35 -52q22 0 44.5 -2.5t40.5 -11t29.5 -25t11.5 -44.5q0 -27 -14.5 -46t-36 -30t-45.5 -16t-43 -5
q-30 0 -64.5 8.5t-60.5 21.5l25 47q12 -5 31.5 -11t45.5 -6q12 0 23.5 1.5t21 5t15.5 9.5t6 16q0 18 -17.5 26t-32.5 8t-36 -8l-32 29l54 81q-49 2 -97.5 16.5t-82.5 49.5l91 101q21 -26 46.5 -39.5t59.5 -13.5q26 0 47 7.5t21 27.5q0 19 -18.5 28.5t-47 16t-61 14t-61 22.5
t-47 42.5t-18.5 73.5q0 43 17.5 74t46 51t65.5 29.5t75 9.5q48 0 97 -14t83 -50z" />
    <glyph glyph-name="Tcommaaccent" unicode="&#x162;" 
d="M209 570h-202v138h560v-138h-202v-570h-156v570zM240 -61h144l-90 -199h-118z" />
    <glyph glyph-name="tcommaaccent" unicode="&#x163;" horiz-adv-x="407" 
d="M384 366h-132v-162q0 -20 2 -36.5t9 -28.5t21.5 -18.5t38.5 -6.5q12 0 31.5 2.5t29.5 11.5v-125q-25 -9 -52 -12t-53 -3q-38 0 -70 8t-56 25.5t-37.5 45.5t-13.5 68v231h-96v120h96v144h150v-144h132v-120zM167 -61h144l-90 -199h-118z" />
    <glyph glyph-name="Tcaron" unicode="&#x164;" 
d="M209 570h-202v138h560v-138h-202v-570h-156v570zM226 931l63 -78l62 78h135l-119 -144h-163l-116 144h138z" />
    <glyph glyph-name="tcaron" unicode="&#x165;" horiz-adv-x="407" 
d="M384 366h-132v-162q0 -20 2 -36.5t9 -28.5t21.5 -18.5t38.5 -6.5q12 0 31.5 2.5t29.5 11.5v-125q-25 -9 -52 -12t-53 -3q-38 0 -70 8t-56 25.5t-37.5 45.5t-13.5 68v231h-96v120h96v144h150v-144h132v-120zM350 758h134l-80 -199h-98z" />
    <glyph glyph-name="Tbar" unicode="&#x166;" 
d="M490 366h-125v-366h-156v366h-119v96h119v108h-202v138h560v-138h-202v-108h125v-96z" />
    <glyph glyph-name="tbar" unicode="&#x167;" horiz-adv-x="407" 
d="M367 217h-115v-13q0 -20 2 -36.5t9 -28.5t21.5 -18.5t38.5 -6.5q12 0 31.5 2.5t29.5 11.5v-125q-25 -9 -52 -12t-53 -3q-38 0 -70 8t-56 25.5t-37.5 45.5t-13.5 68v82h-75v96h75v53h-96v120h96v144h150v-144h132v-120h-132v-53h115v-96z" />
    <glyph glyph-name="Utilde" unicode="&#x168;" horiz-adv-x="741" 
d="M669 273q0 -63 -19 -116t-56.5 -92t-93.5 -61t-129 -22q-74 0 -130 22t-93.5 61t-56.5 92t-19 116v435h156v-429q0 -33 10.5 -61t29.5 -48.5t45.5 -32t57.5 -11.5t57 11.5t45 32t29.5 48.5t10.5 61v429h156v-435zM181 766q4 25 14 50t25.5 44.5t37.5 31.5t50 12
q25 0 45 -6t42 -15q14 -5 27.5 -10t28.5 -5q17 0 27 10.5t17 25.5h78q-5 -29 -14 -54t-24.5 -43.5t-38 -29.5t-53.5 -11q-22 0 -41.5 6.5t-36.5 14.5t-32.5 14.5t-30.5 6.5q-17 0 -27 -14t-15 -28h-79z" />
    <glyph glyph-name="utilde" unicode="&#x169;" 
d="M521 0h-144v66h-2q-8 -14 -20.5 -28t-30.5 -25t-41 -18t-50 -7q-57 0 -92.5 17.5t-55 48.5t-26 73t-6.5 91v268h150v-238q0 -21 1.5 -43.5t9 -41.5t23 -31t44.5 -12t47 10.5t27.5 28t12.5 39.5t3 46v242h150v-486zM94 570q4 25 14 50t25.5 44.5t37.5 31.5t50 12
q25 0 45 -6t42 -15q14 -5 27.5 -10t28.5 -5q17 0 27 10.5t17 25.5h78q-5 -29 -14 -54t-24.5 -43.5t-38 -29.5t-53.5 -11q-22 0 -41.5 6.5t-36.5 14.5t-32.5 14.5t-30.5 6.5q-17 0 -27 -14t-15 -28h-79z" />
    <glyph glyph-name="Umacron" unicode="&#x16a;" horiz-adv-x="741" 
d="M669 273q0 -63 -19 -116t-56.5 -92t-93.5 -61t-129 -22q-74 0 -130 22t-93.5 61t-56.5 92t-19 116v435h156v-429q0 -33 10.5 -61t29.5 -48.5t45.5 -32t57.5 -11.5t57 11.5t45 32t29.5 48.5t10.5 61v429h156v-435zM547 787h-340v96h340v-96z" />
    <glyph glyph-name="umacron" unicode="&#x16b;" 
d="M521 0h-144v66h-2q-8 -14 -20.5 -28t-30.5 -25t-41 -18t-50 -7q-57 0 -92.5 17.5t-55 48.5t-26 73t-6.5 91v268h150v-238q0 -21 1.5 -43.5t9 -41.5t23 -31t44.5 -12t47 10.5t27.5 28t12.5 39.5t3 46v242h150v-486zM456 591h-340v96h340v-96z" />
    <glyph glyph-name="Ubreve" unicode="&#x16c;" horiz-adv-x="741" 
d="M669 273q0 -63 -19 -116t-56.5 -92t-93.5 -61t-129 -22q-74 0 -130 22t-93.5 61t-56.5 92t-19 116v435h156v-429q0 -33 10.5 -61t29.5 -48.5t45.5 -32t57.5 -11.5t57 11.5t45 32t29.5 48.5t10.5 61v429h156v-435zM273 904q3 -15 13.5 -24t25 -14.5t31.5 -7.5t34 -2
q39 0 66.5 7.5t38.5 40.5h79q-4 -38 -20 -65.5t-40.5 -45t-56 -25.5t-67.5 -8q-35 0 -67.5 7.5t-58 25t-41 45t-17.5 66.5h80z" />
    <glyph glyph-name="ubreve" unicode="&#x16d;" 
d="M521 0h-144v66h-2q-8 -14 -20.5 -28t-30.5 -25t-41 -18t-50 -7q-57 0 -92.5 17.5t-55 48.5t-26 73t-6.5 91v268h150v-238q0 -21 1.5 -43.5t9 -41.5t23 -31t44.5 -12t47 10.5t27.5 28t12.5 39.5t3 46v242h150v-486zM185 708q3 -15 13.5 -24t25 -14.5t31.5 -7.5t34 -2
q39 0 66.5 7.5t38.5 40.5h79q-4 -38 -20 -65.5t-40.5 -45t-56 -25.5t-67.5 -8t-68 7.5t-57 25t-41 45t-18 66.5h80z" />
    <glyph glyph-name="Uring" unicode="&#x16e;" horiz-adv-x="741" 
d="M669 273q0 -63 -19 -116t-56.5 -92t-93.5 -61t-129 -22q-74 0 -130 22t-93.5 61t-56.5 92t-19 116v435h156v-429q0 -33 10.5 -61t29.5 -48.5t45.5 -32t57.5 -11.5t57 11.5t45 32t29.5 48.5t10.5 61v429h156v-435zM377 731q-23 0 -43 9t-35 24t-24 35t-9 43q0 22 9 42.5
t24 35.5t35 24t43 9q22 0 42.5 -9t35.5 -24t24 -35.5t9 -42.5q0 -23 -9 -43t-24 -35t-35.5 -24t-42.5 -9zM326 842q0 -21 15 -36t36 -15t36 15t15 36t-15 36t-36 15t-36 -15t-15 -36z" />
    <glyph glyph-name="uring" unicode="&#x16f;" 
d="M521 0h-144v66h-2q-8 -14 -20.5 -28t-30.5 -25t-41 -18t-50 -7q-57 0 -92.5 17.5t-55 48.5t-26 73t-6.5 91v268h150v-238q0 -21 1.5 -43.5t9 -41.5t23 -31t44.5 -12t47 10.5t27.5 28t12.5 39.5t3 46v242h150v-486zM284 545q-23 0 -43 9t-35 24t-24 35t-9 43t9 43t24 35
t35 24t43 9t43 -9t35 -24t24 -35t9 -43t-9 -43t-24 -35t-35 -24t-43 -9zM233 656q0 -21 15 -36t36 -15t36 15t15 36t-15 36t-36 15t-36 -15t-15 -36z" />
    <glyph glyph-name="Uhungarumlaut" unicode="&#x170;" horiz-adv-x="741" 
d="M669 273q0 -63 -19 -116t-56.5 -92t-93.5 -61t-129 -22q-74 0 -130 22t-93.5 61t-56.5 92t-19 116v435h156v-429q0 -33 10.5 -61t29.5 -48.5t45.5 -32t57.5 -11.5t57 11.5t45 32t29.5 48.5t10.5 61v429h156v-435zM262 904h204l-173 -144h-132zM526 904h204l-173 -144
h-132z" />
    <glyph glyph-name="uhungarumlaut" unicode="&#x171;" 
d="M521 0h-144v66h-2q-8 -14 -20.5 -28t-30.5 -25t-41 -18t-50 -7q-57 0 -92.5 17.5t-55 48.5t-26 73t-6.5 91v268h150v-238q0 -21 1.5 -43.5t9 -41.5t23 -31t44.5 -12t47 10.5t27.5 28t12.5 39.5t3 46v242h150v-486zM161 708h204l-173 -144h-132zM425 708h204l-173 -144
h-132z" />
    <glyph glyph-name="Uogonek" unicode="&#x172;" horiz-adv-x="741" 
d="M491 -198q-25 -19 -51 -30.5t-58 -11.5q-42 0 -73.5 24t-31.5 69q0 33 22 68t49 62q-68 3 -120 26t-86.5 62t-52 90.5t-17.5 111.5v435h156v-429q0 -33 10.5 -61t29.5 -48.5t45 -32t58 -11.5q31 0 57 11.5t45 32t29.5 48.5t10.5 61v429h156v-435q0 -57 -15.5 -106
t-46.5 -87.5t-77.5 -63t-107.5 -31.5q-21 -23 -38 -52t-17 -55q0 -17 12 -31.5t30 -14.5q14 0 28.5 7t25.5 16z" />
    <glyph glyph-name="uogonek" unicode="&#x173;" 
d="M501 -198q-25 -19 -51 -30.5t-58 -11.5q-42 0 -73.5 24t-31.5 69q0 19 8.5 39.5t21.5 39.5t29 36.5t31 31.5v66h-2q-8 -14 -20.5 -28t-30.5 -25t-40.5 -18t-50.5 -7q-57 0 -92.5 17.5t-55 48.5t-26 73t-6.5 91v268h150v-238q0 -21 1.5 -43.5t9 -41.5t23 -31t44.5 -12
t47 10.5t27.5 28t12.5 39.5t3 46v242h150v-486h-74q-12 -12 -24.5 -27t-22.5 -31t-16.5 -32.5t-6.5 -31.5q0 -17 12 -31.5t30 -14.5q14 0 28.5 7t25.5 16z" />
    <glyph glyph-name="Wcircumflex" unicode="&#x174;" horiz-adv-x="1000" 
d="M-2 708h170l113 -454h2l148 454h145l147 -466h2l119 466h158l-207 -708h-139l-156 490h-2l-156 -490h-134zM560 760l-63 78l-62 -78h-135l119 144h163l116 -144h-138z" />
    <glyph glyph-name="wcircumflex" unicode="&#x175;" horiz-adv-x="833" 
d="M-5 486h160l99 -305h2l83 305h164l90 -305h2l91 305h152l-173 -486h-148l-101 323h-2l-90 -323h-151zM476 564l-63 78l-62 -78h-135l119 144h163l116 -144h-138z" />
    <glyph glyph-name="Ycircumflex" unicode="&#x176;" horiz-adv-x="648" 
d="M246 302l-266 406h194l150 -265l159 265h185l-266 -406v-302h-156v302zM385 760l-63 78l-62 -78h-135l119 144h163l116 -144h-138z" />
    <glyph glyph-name="ycircumflex" unicode="&#x177;" horiz-adv-x="556" 
d="M333 -79q-15 -39 -29 -69t-35.5 -50.5t-54.5 -31t-87 -10.5q-58 0 -112 18l20 123q34 -15 70 -15q25 0 41 5.5t26.5 16t17.5 25.5t15 35l11 28l-213 490h162l125 -321h2l107 321h154zM353 564l-63 78l-62 -78h-135l119 144h163l116 -144h-138z" />
    <glyph glyph-name="Zacute" unicode="&#x179;" horiz-adv-x="630" 
d="M35 144l359 426h-346v138h535v-138l-352 -426h364v-144h-560v144zM321 904h204l-173 -144h-132z" />
    <glyph glyph-name="zacute" unicode="&#x17a;" horiz-adv-x="500" 
d="M34 150l252 216h-246v120h420v-144l-264 -222h270v-120h-432v150zM250 708h204l-173 -144h-132z" />
    <glyph glyph-name="Zdotaccent" unicode="&#x17b;" horiz-adv-x="630" 
d="M35 144l359 426h-346v138h535v-138l-352 -426h364v-144h-560v144zM336 754q-18 0 -33 7t-26 19t-17.5 27.5t-6.5 32.5q0 16 6.5 31t17.5 26t25.5 18t31.5 7q35 0 61 -23t26 -59t-24 -61t-61 -25z" />
    <glyph glyph-name="zdotaccent" unicode="&#x17c;" horiz-adv-x="500" 
d="M34 150l252 216h-246v120h420v-144l-264 -222h270v-120h-432v150zM265 558q-18 0 -33 7t-26 19t-17.5 27.5t-6.5 32.5q0 16 6.5 31t17.5 26t25.5 18t31.5 7q35 0 61 -23t26 -59t-24 -61t-61 -25z" />
    <glyph glyph-name="Scommaaccent" unicode="&#x218;" 
d="M422 535q-19 24 -51.5 35.5t-61.5 11.5q-17 0 -35 -4t-34 -12.5t-26 -22.5t-10 -34q0 -32 24 -49t60.5 -29t78.5 -24t78.5 -34t60.5 -59t24 -99q0 -59 -22 -103t-59.5 -73t-87 -43t-104.5 -14q-69 0 -128 21t-110 68l111 122q24 -32 60.5 -49.5t75.5 -17.5q19 0 38.5 4.5
t35 13.5t25 23t9.5 33q0 32 -24.5 50.5t-61.5 31.5t-80 26t-80 35t-61.5 58t-24.5 95q0 57 22.5 100t60 72t86.5 43.5t101 14.5q60 0 116 -17t101 -57zM217 -61h144l-90 -199h-118z" />
    <glyph glyph-name="scommaaccent" unicode="&#x219;" horiz-adv-x="463" 
d="M328 343q-33 41 -87 41q-19 0 -37 -9t-18 -31q0 -18 18.5 -26.5t47 -15t61 -14t61 -23.5t47 -43.5t18.5 -73.5q0 -47 -20.5 -77.5t-52.5 -49t-72 -26t-79 -7.5q-51 0 -103 14.5t-88 51.5l91 101q21 -26 46.5 -39.5t59.5 -13.5q26 0 47 7.5t21 27.5q0 19 -18.5 28.5
t-47 16t-61 14t-61 22.5t-47 42.5t-18.5 73.5q0 43 17.5 74t46 51t65.5 29.5t75 9.5q48 0 97 -14t83 -50zM172 -61h144l-90 -199h-118z" />
    <glyph glyph-name="uni021A" unicode="&#x21a;" 
d="M209 570h-202v138h560v-138h-202v-570h-156v570zM240 -61h144l-90 -199h-118z" />
    <glyph glyph-name="uni021B" unicode="&#x21b;" horiz-adv-x="407" 
d="M384 366h-132v-162q0 -20 2 -36.5t9 -28.5t21.5 -18.5t38.5 -6.5q12 0 31.5 2.5t29.5 11.5v-125q-25 -9 -52 -12t-53 -3q-38 0 -70 8t-56 25.5t-37.5 45.5t-13.5 68v231h-96v120h96v144h150v-144h132v-120zM167 -61h144l-90 -199h-118z" />
    <glyph glyph-name="dotlessj" unicode="&#x237;" horiz-adv-x="260" 
d="M205 -36q0 -47 -9 -84.5t-30 -64t-55.5 -41t-85.5 -14.5q-17 0 -35 1.5t-35 6.5l8 133q18 -9 39 -9q19 0 30 10t16 25t6 32t1 31v496h150v-522z" />
    <glyph glyph-name="caron" unicode="&#x2c7;" horiz-adv-x="260" 
d="M65 708l63 -78l62 78h135l-119 -144h-163l-116 144h138z" />
    <glyph glyph-name="uni02C9" unicode="&#x2c9;" horiz-adv-x="260" 
d="M300 591h-340v96h340v-96z" />
    <glyph glyph-name="breve" unicode="&#x2d8;" horiz-adv-x="260" 
d="M26 708q3 -15 13.5 -24t25 -14.5t31.5 -7.5t34 -2q39 0 66.5 7.5t38.5 40.5h79q-4 -38 -20 -65.5t-40.5 -45t-56 -25.5t-67.5 -8t-68 7.5t-57 25t-41 45t-18 66.5h80z" />
    <glyph glyph-name="dotaccent" unicode="&#x2d9;" horiz-adv-x="260" 
d="M129 558q-18 0 -33 7t-26 19t-17.5 27.5t-6.5 32.5q0 16 6.5 31t17.5 26t25.5 18t31.5 7q35 0 61 -23t26 -59t-24 -61t-61 -25z" />
    <glyph glyph-name="ring" unicode="&#x2da;" horiz-adv-x="260" 
d="M130 545q-23 0 -43 9t-35 24t-24 35t-9 43t9 43t24 35t35 24t43 9t43 -9t35 -24t24 -35t9 -43t-9 -43t-24 -35t-35 -24t-43 -9zM79 656q0 -21 15 -36t36 -15t36 15t15 36t-15 36t-36 15t-36 -15t-15 -36z" />
    <glyph glyph-name="ogonek" unicode="&#x2db;" horiz-adv-x="260" 
d="M205 -198q-25 -19 -51 -30.5t-58 -11.5q-21 0 -40 6t-33.5 18t-23 29.5t-8.5 39.5t10 44.5t26 44t34 39.5t35 31h68q-12 -11 -26.5 -26.5t-27 -34t-21 -37.5t-8.5 -36t12 -31.5t30 -14.5q14 0 28.5 7t25.5 16z" />
    <glyph glyph-name="hungarumlaut" unicode="&#x2dd;" horiz-adv-x="260" 
d="M-1 708h204l-173 -144h-132zM263 708h204l-173 -144h-132z" />
    <glyph glyph-name="uni0394" unicode="&#x394;" horiz-adv-x="693" 
d="M27 78l240 643h165l233 -642v-79h-638v78zM515 109l-112 293q-6 19 -14.5 43.5t-16.5 49t-15.5 47t-11.5 38.5h-3q-3 -13 -9.5 -32.5l-14 -42t-15.5 -45.5t-14 -43l-119 -308h345z" />
    <glyph glyph-name="uni03A9" unicode="&#x3a9;" horiz-adv-x="751" 
d="M182 112q-24 21 -47 49t-41 63.5t-29 77.5t-11 90q0 66 23.5 125t66 103t102 70t132.5 26q77 0 136.5 -28.5t100 -74t61 -102t20.5 -113.5q0 -48 -11 -91t-29.5 -79.5t-42 -65.5t-48.5 -50v-3h145v-109h-283v81q25 16 48.5 41t41.5 60t28.5 81.5t10.5 105.5
q0 46 -11.5 89t-34.5 75.5t-56.5 52t-76.5 19.5q-41 0 -75 -18t-58 -50.5t-37 -76.5t-13 -96q0 -54 10.5 -99.5t28 -81.5t41 -61.5t49.5 -40.5v-81h-284v109h143v3z" />
    <glyph glyph-name="uni03BC" unicode="&#x3bc;" 
d="M521 0h-144v66h-2q-8 -14 -20.5 -28t-30.5 -25t-41 -18t-50 -7q-17 0 -30 3v-219h-150v714h150v-238q0 -21 1.5 -43.5t9 -41.5t23 -31t44.5 -12t47 10.5t27.5 28t12.5 39.5t3 46v242h150v-486z" />
    <glyph glyph-name="pi" unicode="&#x3c0;" horiz-adv-x="637" 
d="M538 416v-262q0 -57 4 -93.5t10 -60.5h-134q-10 16 -14 54.5t-4 92.5v269h-142q-2 -41 -7.5 -97t-14 -114.5t-20 -112.5t-24.5 -92h-134q13 43 24.5 98t19.5 112t13.5 111t6.5 95q-37 0 -61.5 -2.5t-41.5 -7.5l-15 89q20 16 62.5 25.5t111.5 9.5h444l-10 -114h-74z" />
    <glyph glyph-name="fraction" unicode="&#x2044;" horiz-adv-x="167" 
d="M244 740l84 -47l-413 -725l-76 43z" />
    <glyph glyph-name="afii61289" unicode="&#x2113;" horiz-adv-x="546" 
d="M526 136q-42 -80 -101 -112.5t-122 -32.5q-46 0 -79.5 13t-56.5 35t-36 52t-18 63q0 8 -1 11q-13 -10 -26 -20.5t-27 -19.5l-35 71q23 19 45 35.5t42 34.5v248q0 69 15 118.5t40.5 81.5t60 47t74.5 15q39 0 67.5 -14.5t47 -39t27.5 -57.5t9 -70q0 -91 -56 -176t-153 -175
l1 -39q2 -51 27.5 -77.5t63.5 -26.5q21 0 40.5 8t37 21t32 29.5t25.5 34.5zM243 367q54 60 87 119.5t33 111.5q0 38 -12.5 60.5t-43.5 22.5q-11 0 -22.5 -7.5t-20.5 -25.5t-15 -49t-6 -77v-155z" />
    <glyph glyph-name="Omega" unicode="&#x2126;" horiz-adv-x="751" 
d="M182 112q-24 21 -47 49t-41 63.5t-29 77.5t-11 90q0 66 23.5 125t66 103t102 70t132.5 26q77 0 136.5 -28.5t100 -74t61 -102t20.5 -113.5q0 -48 -11 -91t-29.5 -79.5t-42 -65.5t-48.5 -50v-3h145v-109h-283v81q25 16 48.5 41t41.5 60t28.5 81.5t10.5 105.5
q0 46 -11.5 89t-34.5 75.5t-56.5 52t-76.5 19.5q-41 0 -75 -18t-58 -50.5t-37 -76.5t-13 -96q0 -54 10.5 -99.5t28 -81.5t41 -61.5t49.5 -40.5v-81h-284v109h143v3z" />
    <glyph glyph-name="estimated" unicode="&#x212e;" horiz-adv-x="779" 
d="M195 352v-242q79 -79 194 -79q84 0 145 38t112 122l47 -28q-30 -48 -61.5 -82t-68 -56t-79.5 -32t-95 -10q-79 0 -142.5 28.5t-108.5 78.5t-69.5 117.5t-24.5 144.5q0 78 24.5 145t69.5 116.5t108.5 78t142.5 28.5q77 0 140.5 -27t109.5 -76t71 -116.5t25 -148.5h-540z
M584 400v193q-84 81 -197 81t-192 -81v-193h389z" />
    <glyph glyph-name="partialdiff" unicode="&#x2202;" horiz-adv-x="606" 
d="M68 737q12 9 30 19.5t42 19.5t55 15t69 6q59 0 112.5 -25t93.5 -73.5t63.5 -121t23.5 -167.5q0 -93 -20.5 -170t-59 -132t-93.5 -85.5t-125 -30.5q-57 0 -98.5 22.5t-68.5 58t-40.5 78t-13.5 82.5q0 60 17.5 109t48.5 83.5t72 53t89 18.5q33 0 59 -9.5t45.5 -22.5
t32.5 -27t19 -24h1q1 6 1 16.5v16.5q0 47 -12.5 90.5t-35.5 76.5t-56 52.5t-73 19.5q-49 0 -84 -16.5t-55 -31.5zM273 104q28 0 51.5 18.5t41 47t28.5 64t15 70.5q-3 12 -12.5 26.5t-24.5 28t-34.5 22.5t-43.5 9q-27 0 -49 -13t-37.5 -35.5t-24.5 -51.5t-9 -61
q0 -26 7 -48.5t19.5 -39.5t30.5 -27t41 -10h1z" />
    <glyph glyph-name="Delta" unicode="&#x2206;" horiz-adv-x="693" 
d="M27 78l240 643h165l233 -642v-79h-638v78zM515 109l-112 293q-6 19 -14.5 43.5t-16.5 49t-15.5 47t-11.5 38.5h-3q-3 -13 -9.5 -32.5l-14 -42t-15.5 -45.5t-14 -43l-119 -308h345z" />
    <glyph glyph-name="product" unicode="&#x220f;" horiz-adv-x="759" 
d="M626 583v-680h-135v680h-224v-680h-135v680h-108v122h710v-122h-108z" />
    <glyph glyph-name="summation" unicode="&#x2211;" horiz-adv-x="588" 
d="M23 -97v85l252 316l-242 307v94h519v-115h-334v-4l211 -261l-233 -295v-3h373v-124h-546z" />
    <glyph glyph-name="minus" unicode="&#x2212;" horiz-adv-x="666" 
d="M59 366h548v-126h-548v126z" />
    <glyph glyph-name="uni2215" unicode="&#x2215;" horiz-adv-x="167" 
d="M244 740l84 -47l-413 -725l-76 43z" />
    <glyph glyph-name="uni2219" unicode="&#x2219;" horiz-adv-x="296" 
d="M56 283q0 19 7 36t19.5 29.5t29.5 19.5t36 7t36 -7t29.5 -19.5t19.5 -29.5t7 -36t-7 -36t-19.5 -29.5t-29.5 -19.5t-36 -7t-36 7t-29.5 19.5t-19.5 29.5t-7 36z" />
    <glyph glyph-name="radical" unicode="&#x221a;" horiz-adv-x="624" 
d="M398 -142h-109l-157 440l-77 -31l-23 74l181 74l109 -322q5 -23 10.5 -46t10.5 -41l1 -1l7.5 42.5t9.5 51.5l178 747h96z" />
    <glyph glyph-name="infinity" unicode="&#x221e;" horiz-adv-x="803" 
d="M753 291q0 -42 -14 -75.5t-37 -57t-53 -35.5t-62 -12q-44 0 -88.5 24.5t-96.5 92.5q-20 -25 -40.5 -46.5t-43.5 -37t-49 -24.5t-57 -9q-32 0 -61.5 12.5t-52 36t-36 55.5t-13.5 71t13 71.5t36 56t54.5 36.5t68.5 13q58 0 101.5 -31t83.5 -83q16 18 34.5 38t41 37t50 28
t61.5 11t63 -12t50.5 -34.5t34 -54t12.5 -70.5v-1zM223 185q21 0 40 8.5t35.5 22.5t32.5 31.5t31 34.5q-16 21 -31 41t-32 35t-36.5 24t-44.5 9q-45 0 -69.5 -30t-24.5 -76q0 -42 27.5 -71t69.5 -29h2zM584 391q-24 0 -44 -10.5t-37.5 -26t-32 -33.5t-26.5 -32
q23 -29 41.5 -49t35 -32t33 -17.5t35.5 -5.5q21 0 38 9.5t28 24t17 32t6 34.5q0 48 -25.5 77t-67.5 29h-1z" />
    <glyph glyph-name="integral" unicode="&#x222b;" horiz-adv-x="410" 
d="M376 769q-8 4 -17.5 6.5t-20.5 2.5q-15 0 -28.5 -6t-23.5 -20q-17 -21 -22.5 -63t-5.5 -105q0 -62 2.5 -119.5t5.5 -115.5t5.5 -118.5t2.5 -129.5q0 -72 -10.5 -121.5t-27.5 -79.5q-21 -42 -58.5 -59t-76.5 -17q-25 0 -47.5 5.5t-34.5 11.5l17 95q8 -3 19.5 -7t25.5 -4
q13 0 25.5 4.5t20.5 15.5q14 19 21.5 53.5t7.5 102.5q0 69 -2.5 131t-5.5 121.5t-5.5 119t-2.5 124.5q0 89 14.5 141.5t48.5 87.5q23 25 56 36t67 11q20 0 37.5 -4t26.5 -8z" />
    <glyph glyph-name="approxequal" unicode="&#x2248;" horiz-adv-x="666" 
d="M591 228q-29 -57 -69.5 -94t-88.5 -37q-28 0 -51.5 11t-46 24.5t-46.5 24.5t-52 11q-20 0 -41.5 -25.5t-41.5 -59.5l-79 78q13 27 31.5 50.5t40.5 40.5t46.5 27t49.5 10q31 0 54.5 -11t44.5 -23.5t42.5 -23.5t48.5 -11q18 0 37.5 21.5t42.5 61.5zM591 426
q-29 -60 -69 -92.5t-88 -32.5q-25 0 -49.5 11t-49 24t-49 24t-49.5 11q-9 0 -19.5 -7.5t-21 -19.5t-21.5 -27t-21 -30l-79 75q13 26 31 49t40 40t46.5 26.5t50.5 9.5q25 0 50 -11t49 -23.5t47 -23.5t45 -11q18 0 38 23t41 61z" />
    <glyph glyph-name="notequal" unicode="&#x2260;" horiz-adv-x="666" 
d="M59 462h279l50 116l106 -43l-32 -73h145v-126h-200l-29 -66h229v-126h-284l-52 -119l-102 38l34 81h-144v126h198l28 66h-226v126z" />
    <glyph glyph-name="lessequal" unicode="&#x2264;" horiz-adv-x="666" 
d="M69 313v113l482 193v-140l-326 -108l326 -109v-138zM65 -15v123h490v-123h-490z" />
    <glyph glyph-name="greaterequal" unicode="&#x2265;" horiz-adv-x="666" 
d="M69 124v138l326 109l-326 108v140l482 -193v-113zM65 -15v123h490v-123h-490z" />
    <glyph glyph-name="lozenge" unicode="&#x25ca;" horiz-adv-x="623" 
d="M363 -51h-108l-204 403l208 403h109l204 -403zM333 589q-6 14 -11.5 29.5t-8.5 28.5h-3q-7 -28 -20 -58l-119 -234l120 -244q6 -14 11 -29.5t7 -25.5h4q3 11 8.5 28t9.5 25l121 240z" />
    <glyph glyph-name="grave.cap" unicode="&#xe300;" horiz-adv-x="260" 
d="M232 760h-132l-173 144h204z" />
    <glyph glyph-name="acute.cap" unicode="&#xe301;" horiz-adv-x="260" 
d="M131 904h204l-173 -144h-132z" />
    <glyph glyph-name="circumflex.cap" unicode="&#xe302;" horiz-adv-x="260" 
d="M191 760l-63 78l-62 -78h-135l119 144h163l116 -144h-138z" />
    <glyph glyph-name="caron.cap" unicode="&#xe303;" horiz-adv-x="260" 
d="M65 931l63 -78l62 78h135l-119 -144h-163l-116 144h138z" />
    <glyph glyph-name="tilde.cap" unicode="&#xe304;" horiz-adv-x="260" 
d="M-66 766q4 25 14 50t25.5 44.5t37.5 31.5t50 12q25 0 45 -6t42 -15q14 -5 27.5 -10t28.5 -5q17 0 27 10.5t17 25.5h78q-5 -29 -14 -54t-24.5 -43.5t-38 -29.5t-53.5 -11q-22 0 -41.5 6.5t-36.5 14.5t-32.5 14.5t-30.5 6.5q-17 0 -27 -14t-15 -28h-79z" />
    <glyph glyph-name="dieresis.cap" unicode="&#xe305;" horiz-adv-x="260" 
d="M25 754q-18 0 -33 7t-26 19t-17.5 27.5t-6.5 32.5q0 16 6.5 31t17.5 26t25.5 18t31.5 7q35 0 61 -23t26 -59t-24 -61t-61 -25zM233 754q-18 0 -33 7t-26 19t-17.5 27.5t-6.5 32.5q0 16 6.5 31t17.5 26t25.5 18t31.5 7q35 0 61 -23t26 -59t-24 -61t-61 -25z" />
    <glyph glyph-name="macron.cap" unicode="&#xe306;" horiz-adv-x="260" 
d="M300 787h-340v96h340v-96z" />
    <glyph glyph-name="breve.cap" unicode="&#xe307;" horiz-adv-x="260" 
d="M26 904q3 -15 13.5 -24t25 -14.5t31.5 -7.5t34 -2q39 0 66.5 7.5t38.5 40.5h79q-4 -38 -20 -65.5t-40.5 -45t-56 -25.5t-67.5 -8q-35 0 -67.5 7.5t-58 25t-41 45t-17.5 66.5h80z" />
    <glyph glyph-name="ring.cap" unicode="&#xe308;" horiz-adv-x="260" 
d="M130 731q-23 0 -43 9t-35 24t-24 35t-9 43q0 22 9 42.5t24 35.5t35 24t43 9q22 0 42.5 -9t35.5 -24t24 -35.5t9 -42.5q0 -23 -9 -43t-24 -35t-35.5 -24t-42.5 -9zM79 842q0 -21 15 -36t36 -15t36 15t15 36t-15 36t-36 15t-36 -15t-15 -36z" />
    <glyph glyph-name="hungarumlaut.cap" unicode="&#xe309;" horiz-adv-x="260" 
d="M-1 904h204l-173 -144h-132zM263 904h204l-173 -144h-132z" />
    <glyph glyph-name="dotaccent.cap" unicode="&#xe30a;" horiz-adv-x="260" 
d="M129 754q-18 0 -33 7t-26 19t-17.5 27.5t-6.5 32.5q0 16 6.5 31t17.5 26t25.5 18t31.5 7q35 0 61 -23t26 -59t-24 -61t-61 -25z" />
    <glyph glyph-name="caron.alt" unicode="&#xe30b;" horiz-adv-x="260" 
d="M81 708h134l-80 -199h-98z" />
    <glyph glyph-name="commaaccent" unicode="&#xe30c;" horiz-adv-x="260" 
d="M91 -61h144l-90 -199h-118z" />
    <glyph glyph-name="commaaccent.alt" unicode="&#xe30d;" horiz-adv-x="260" 
d="M161 584h-144l90 199h118z" />
    <glyph glyph-name="uniF8FF" unicode="&#xf8ff;" horiz-adv-x="512" 
d="M222 117v67h56v-67h-56zM225 234l-2 17q0 56 13 81q7 13 18 27.5t28 31.5q32 30 41 47.5t9 35.5q0 36 -22.5 60.5t-53.5 24.5t-53.5 -22t-28.5 -73l-50 8q7 72 44 104.5t91 32.5t89 -35.5t35 -95.5q0 -32 -12.5 -58.5t-50.5 -61.5q-37 -33 -43 -52q-6 -20 -6 -72h-46z
M462 50v617h-412v-617h412zM512 718v-718h-512v718h512z" />
    <glyph glyph-name="gravecmb" unicode="&#x300;" horiz-adv-x="0" 
d="M45 564h-132l-173 144h204z" />
    <glyph glyph-name="acutecmb" unicode="&#x301;" horiz-adv-x="0" 
d="M-159 708h204l-173 -144h-132z" />
    <glyph glyph-name="circumflexcmb" unicode="&#x302;" horiz-adv-x="0" 
d="M0 564l-63 78l-62 -78h-135l119 144h163l116 -144h-138z" />
    <glyph glyph-name="tildecmb" unicode="&#x303;" horiz-adv-x="0" 
d="M-260 570q4 25 14 50t25.5 44.5t37.5 31.5t50 12q25 0 45 -6t42 -15q14 -5 27.5 -10t28.5 -5q17 0 27 10.5t17 25.5h78q-5 -29 -14 -54t-24.5 -43.5t-38 -29.5t-53.5 -11q-22 0 -41.5 6.5t-36.5 14.5t-32.5 14.5t-30.5 6.5q-17 0 -27 -14t-15 -28h-79z" />
    <glyph glyph-name="macroncmb" unicode="&#x304;" horiz-adv-x="0" 
d="M80 591h-340v96h340v-96z" />
    <glyph glyph-name="brevecmb" unicode="&#x306;" horiz-adv-x="0" 
d="M-180 708q3 -15 13.5 -24t25 -14.5t31.5 -7.5t34 -2q39 0 66.5 7.5t38.5 40.5h79q-4 -38 -20 -65.5t-40.5 -45t-56 -25.5t-67.5 -8t-68 7.5t-57 25t-41 45t-18 66.5h80z" />
    <glyph glyph-name="dotaccentcmb" unicode="&#x307;" horiz-adv-x="0" 
d="M-177 558q-18 0 -33 7t-26 19t-17.5 27.5t-6.5 32.5q0 16 6.5 31t17.5 26t25.5 18t31.5 7q35 0 61 -23t26 -59t-24 -61t-61 -25z" />
    <glyph glyph-name="dieresiscmb" unicode="&#x308;" horiz-adv-x="0" 
d="M-177 558q-18 0 -33 7t-26 19t-17.5 27.5t-6.5 32.5q0 16 6.5 31t17.5 26t25.5 18t31.5 7q35 0 61 -23t26 -59t-24 -61t-61 -25zM31 558q-18 0 -33 7t-26 19t-17.5 27.5t-6.5 32.5q0 16 6.5 31t17.5 26t25.5 18t31.5 7q35 0 61 -23t26 -59t-24 -61t-61 -25z" />
    <glyph glyph-name="hookabovecmb" unicode="&#x309;" horiz-adv-x="0" 
d="M-362 550q0 17 6 27.5t18 19.5q18 15 33 25t26 19t18 17.5t7 17.5q-1 17 -14 26t-33 9q-30 0 -45.5 -14.5t-17.5 -32.5l-98 4q7 54 50 83t110 30q29 0 54.5 -6t45.5 -18.5t31 -31t11 -43.5q0 -15 -4.5 -26.5t-12.5 -23.5t-24 -24.5t-39 -27.5q-15 -9 -20.5 -18t-4.5 -17
l-1 -16l-96 -1v22z" />
    <glyph glyph-name="ringcmb" unicode="&#x30a;" horiz-adv-x="0" 
d="M-149 545q-23 0 -43 9t-35 24t-24 35t-9 43t9 43t24 35t35 24t43 9t43 -9t35 -24t24 -35t9 -43t-9 -43t-24 -35t-35 -24t-43 -9zM-200 656q0 -21 15 -36t36 -15t36 15t15 36t-15 36t-36 15t-36 -15t-15 -36z" />
    <glyph glyph-name="hungarumlautcmb" unicode="&#x30b;" horiz-adv-x="0" 
d="M-159 708h204l-173 -144h-132zM105 708h204l-173 -144h-132z" />
    <glyph glyph-name="caroncmb" unicode="&#x30c;" horiz-adv-x="0" 
d="M-122 708l63 -78l62 78h135l-119 -144h-163l-116 144h138z" />
    <glyph glyph-name="doublegravecmb" unicode="&#x30f;" horiz-adv-x="0" 
d="M45 564h-132l-173 144h204zM-211 565h-132l-173 144h204z" />
    <glyph glyph-name="invertedbrevecmb" unicode="&#x311;" horiz-adv-x="0" 
d="M-288 708q3 -15 13.5 -24t25 -14.5t31.5 -7.5t34 -2q39 0 66.5 7.5t38.5 40.5h79q-4 -38 -20 -65.5t-40.5 -45t-56 -25.5t-67.5 -8t-68 7.5t-57 25t-41 45t-18 66.5h80z" />
    <glyph glyph-name="horncmb" unicode="&#x31b;" horiz-adv-x="0" 
d="M-222 718h144l-90 -282h-128z" />
    <glyph glyph-name="dotbelowcmb" unicode="&#x323;" horiz-adv-x="0" 
d="M-296 -162q0 19 7 36t19.5 29.5t29.5 19.5t36 7t36 -7t29.5 -19.5t19.5 -29.5t7 -36t-7 -36t-19.5 -29.5t-29.5 -19.5t-36 -7t-36 7t-29.5 19.5t-19.5 29.5t-7 36z" />
    <glyph glyph-name="dieresisbelowcmb" unicode="&#x324;" horiz-adv-x="0" 
d="M-177 -238q-18 0 -33 7t-26 19t-17.5 27.5t-6.5 32.5q0 16 6.5 31t17.5 26t25.5 18t31.5 7q35 0 61 -23t26 -59t-24 -61t-61 -25zM31 -238q-18 0 -33 7t-26 19t-17.5 27.5t-6.5 32.5q0 16 6.5 31t17.5 26t25.5 18t31.5 7q35 0 61 -23t26 -59t-24 -61t-61 -25z" />
    <glyph glyph-name="ringbelowcmb" unicode="&#x325;" horiz-adv-x="0" 
d="M-149 -292q-23 0 -43 9t-35 24t-24 35t-9 43t9 43t24 35t35 24t43 9t43 -9t35 -24t24 -35t9 -43t-9 -43t-24 -35t-35 -24t-43 -9zM-200 -181q0 -21 15 -36t36 -15t36 15t15 36t-15 36t-36 15t-36 -15t-15 -36z" />
    <glyph glyph-name="commabelowcmb" unicode="&#x326;" horiz-adv-x="0" 
d="M-222 -70h144l-90 -282h-128z" />
    <glyph glyph-name="cedillacmb" unicode="&#x327;" horiz-adv-x="0" 
d="M-122 -60q22 0 44.5 -2.5t40.5 -11t29.5 -25t11.5 -44.5q0 -27 -14.5 -46t-36 -30t-45.5 -16t-43 -5q-30 0 -64.5 8.5t-60.5 21.5l25 47q12 -5 31.5 -11t45.5 -6q12 0 23.5 1.5t21 5t15.5 9.5t6 16q0 18 -17.5 26t-32.5 8q-17 0 -36 -8l-32 29l62 93h67z" />
    <glyph glyph-name="ogonekcmb" unicode="&#x328;" horiz-adv-x="0" 
d="M-46 -198q-25 -19 -51 -30.5t-58 -11.5q-21 0 -40 6t-33.5 18t-23 29.5t-8.5 39.5t10 44.5t26 44t34 39.5t35 31h68q-12 -11 -26.5 -26.5t-27 -34t-21 -37.5t-8.5 -36t12 -31.5t30 -14.5q14 0 28.5 7t25.5 16z" />
    <glyph glyph-name="circumflexbelowcmb" unicode="&#x32d;" horiz-adv-x="0" 
d="M0 -214l-63 78l-62 -78h-135l119 144h163l116 -144h-138z" />
    <glyph glyph-name="brevebelowcmb" unicode="&#x32e;" horiz-adv-x="0" 
d="M-180 -70q3 -15 13.5 -24t25 -14.5t31.5 -7.5t34 -2q39 0 66.5 7.5t38.5 40.5h79q-4 -38 -20 -65.5t-40.5 -45t-56 -25.5t-67.5 -8t-68 7.5t-57 25t-41 45t-18 66.5h80z" />
    <glyph glyph-name="tildebelowcmb" unicode="&#x330;" horiz-adv-x="0" 
d="M-260 -208q4 25 14 50t25.5 44.5t37.5 31.5t50 12q25 0 45 -6t42 -15q14 -5 27.5 -10t28.5 -5q17 0 27 10.5t17 25.5h78q-5 -29 -14 -54t-24.5 -43.5t-38 -29.5t-53.5 -11q-22 0 -41.5 6.5t-36.5 14.5t-32.5 14.5t-30.5 6.5q-17 0 -27 -14t-15 -28h-79z" />
    <glyph glyph-name="macronbelowcmb" unicode="&#x331;" horiz-adv-x="0" 
d="M80 -166h-340v96h340v-96z" />
    <glyph glyph-name="clickdental" unicode="&#x1c0;" horiz-adv-x="222" 
d="M174 750v-1000h-126v1000h126z" />
    <glyph glyph-name="clicklateral" unicode="&#x1c1;" horiz-adv-x="444" 
d="M174 750v-1000h-126v1000h126zM396 750v-1000h-126v1000h126z" />
    <glyph glyph-name="centigrade" unicode="&#x2103;" horiz-adv-x="1085" 
d="M200 460q37 0 62.5 25.5t25.5 62.5t-25.5 62.5t-62.5 25.5t-62.5 -25.5t-25.5 -62.5t25.5 -62.5t62.5 -25.5zM200 376q-36 0 -67 13.5t-54.5 37t-37 54.5t-13.5 67t13.5 67t37 54.5t54.5 37t67 13.5t67 -13.5t54.5 -37t37 -54.5t13.5 -67t-13.5 -67t-37 -54.5t-54.5 -37
t-67 -13.5zM935 524q-23 28 -56.5 43t-77.5 15t-81.5 -17t-65 -47.5t-43 -72.5t-15.5 -91q0 -50 15.5 -91.5t42.5 -72t63.5 -47.5t78.5 -17q48 0 85 20t61 56l130 -97q-45 -63 -114 -93t-142 -30q-83 0 -153 26t-121 74.5t-79.5 117.5t-28.5 154t28.5 154t79.5 117.5
t121 74.5t153 26q30 0 62.5 -5.5t64 -17.5t60.5 -32t52 -49z" />
    <glyph glyph-name="fahrenheit" unicode="&#x2109;" horiz-adv-x="993" 
d="M200 460q37 0 62.5 25.5t25.5 62.5t-25.5 62.5t-62.5 25.5t-62.5 -25.5t-25.5 -62.5t25.5 -62.5t62.5 -25.5zM200 376q-36 0 -67 13.5t-54.5 37t-37 54.5t-13.5 67t13.5 67t37 54.5t54.5 37t67 13.5t67 -13.5t54.5 -37t37 -54.5t13.5 -67t-13.5 -67t-37 -54.5t-54.5 -37
t-67 -13.5zM478 708h475v-144h-319v-144h295v-144h-295v-276h-156v708z" />
    <glyph glyph-name="kelvin" unicode="&#x212a;" horiz-adv-x="722" 
d="M78 708h156v-294l275 294h204l-315 -329l342 -379h-218l-288 336v-336h-156v708z" />
    <glyph glyph-name="Oneroman" unicode="&#x2160;" horiz-adv-x="296" 
d="M70 708h156v-708h-156v708z" />
    <glyph glyph-name="Tworoman" unicode="&#x2161;" horiz-adv-x="592" 
d="M70 708h156v-708h-156v708zM366 708h156v-708h-156v708z" />
    <glyph glyph-name="Threeroman" unicode="&#x2162;" horiz-adv-x="888" 
d="M70 708h156v-708h-156v708zM366 708h156v-708h-156v708zM662 708h156v-708h-156v708z" />
    <glyph glyph-name="Fourroman" unicode="&#x2163;" horiz-adv-x="1000" 
d="M70 708h156v-708h-156v708zM298 708h178l175 -464h2l178 464h167l-292 -708h-125z" />
    <glyph glyph-name="Fiveroman" unicode="&#x2164;" horiz-adv-x="704" 
d="M2 708h178l175 -464h2l178 464h167l-292 -708h-125z" />
    <glyph glyph-name="Sixroman" unicode="&#x2165;" horiz-adv-x="1000" 
d="M2 708h178l175 -464h2l178 464h167l-292 -708h-125zM774 708h156v-708h-156v708z" />
    <glyph glyph-name="Sevenroman" unicode="&#x2166;" horiz-adv-x="1296" 
d="M2 708h178l175 -464h2l178 464h167l-292 -708h-125zM774 708h156v-708h-156v708zM1070 708h156v-708h-156v708z" />
    <glyph glyph-name="Eightroman" unicode="&#x2167;" horiz-adv-x="1592" 
d="M2 708h178l175 -464h2l178 464h167l-292 -708h-125zM774 708h156v-708h-156v708zM1070 708h156v-708h-156v708zM1366 708h156v-708h-156v708z" />
    <glyph glyph-name="Nineroman" unicode="&#x2168;" horiz-adv-x="1018" 
d="M70 708h156v-708h-156v708zM544 370l-234 338h196l151 -248l145 248h189l-229 -335l256 -373h-196l-173 285l-168 -285h-185z" />
    <glyph glyph-name="Tenroman" unicode="&#x2169;" horiz-adv-x="722" 
d="M248 370l-234 338h196l151 -248l145 248h189l-229 -335l256 -373h-196l-173 285l-168 -285h-185z" />
    <glyph glyph-name="Elevenroman" unicode="&#x216a;" horiz-adv-x="1018" 
d="M248 370l-234 338h196l151 -248l145 248h189l-229 -335l256 -373h-196l-173 285l-168 -285h-185zM792 708h156v-708h-156v708z" />
    <glyph glyph-name="Twelveroman" unicode="&#x216b;" horiz-adv-x="1314" 
d="M248 370l-234 338h196l151 -248l145 248h189l-229 -335l256 -373h-196l-173 285l-168 -285h-185zM792 708h156v-708h-156v708zM1088 708h156v-708h-156v708z" />
    <glyph glyph-name="uni216C" unicode="&#x216c;" horiz-adv-x="537" 
d="M78 708h156v-564h289v-144h-445v708z" />
    <glyph glyph-name="uni216D" unicode="&#x216d;" horiz-adv-x="685" 
d="M535 524q-23 28 -56.5 43t-77.5 15t-81.5 -17t-65 -47.5t-43 -72.5t-15.5 -91q0 -50 15.5 -91.5t42.5 -72t63.5 -47.5t78.5 -17q48 0 85 20t61 56l130 -97q-45 -63 -114 -93t-142 -30q-83 0 -153 26t-121 74.5t-79.5 117.5t-28.5 154t28.5 154t79.5 117.5t121 74.5
t153 26q30 0 62.5 -5.5t64 -17.5t60.5 -32t52 -49z" />
    <glyph glyph-name="uni216E" unicode="&#x216e;" horiz-adv-x="759" 
d="M72 708h234q85 0 161.5 -19t133.5 -61.5t90.5 -110.5t33.5 -165q0 -86 -32.5 -151.5t-87.5 -110t-127 -67.5t-151 -23h-255v708zM228 144h81q54 0 100.5 11t80.5 36.5t53.5 67t19.5 101.5q0 52 -19.5 90.5t-52.5 63.5t-77.5 37.5t-93.5 12.5h-92v-420z" />
    <glyph glyph-name="uni216F" unicode="&#x216f;" horiz-adv-x="944" 
d="M72 708h236l163 -462h2l164 462h235v-708h-156v543h-2l-186 -543h-119l-179 543h-2v-543h-156v708z" />
    <glyph glyph-name="oneroman" unicode="&#x2170;" horiz-adv-x="260" 
d="M55 486h150v-486h-150v486zM43 639q0 36 25.5 61.5t61.5 25.5t61.5 -25.5t25.5 -61.5t-25.5 -61.5t-61.5 -25.5t-61.5 25.5t-25.5 61.5z" />
    <glyph glyph-name="tworoman" unicode="&#x2171;" horiz-adv-x="520" 
d="M55 486h150v-486h-150v486zM43 639q0 36 25.5 61.5t61.5 25.5t61.5 -25.5t25.5 -61.5t-25.5 -61.5t-61.5 -25.5t-61.5 25.5t-25.5 61.5zM315 486h150v-486h-150v486zM303 639q0 36 25.5 61.5t61.5 25.5t61.5 -25.5t25.5 -61.5t-25.5 -61.5t-61.5 -25.5t-61.5 25.5
t-25.5 61.5z" />
    <glyph glyph-name="threeroman" unicode="&#x2172;" horiz-adv-x="780" 
d="M55 486h150v-486h-150v486zM43 639q0 36 25.5 61.5t61.5 25.5t61.5 -25.5t25.5 -61.5t-25.5 -61.5t-61.5 -25.5t-61.5 25.5t-25.5 61.5zM315 486h150v-486h-150v486zM303 639q0 36 25.5 61.5t61.5 25.5t61.5 -25.5t25.5 -61.5t-25.5 -61.5t-61.5 -25.5t-61.5 25.5
t-25.5 61.5zM575 486h150v-486h-150v486zM563 639q0 36 25.5 61.5t61.5 25.5t61.5 -25.5t25.5 -61.5t-25.5 -61.5t-61.5 -25.5t-61.5 25.5t-25.5 61.5z" />
    <glyph glyph-name="fourroman" unicode="&#x2173;" horiz-adv-x="816" 
d="M55 486h150v-486h-150v486zM43 639q0 36 25.5 61.5t61.5 25.5t61.5 -25.5t25.5 -61.5t-25.5 -61.5t-61.5 -25.5t-61.5 25.5t-25.5 61.5zM262 486h162l123 -330h2l114 330h151l-192 -486h-159z" />
    <glyph glyph-name="fiveroman" unicode="&#x2174;" horiz-adv-x="556" 
d="M2 486h162l123 -330h2l114 330h151l-192 -486h-159z" />
    <glyph glyph-name="sixroman" unicode="&#x2175;" horiz-adv-x="816" 
d="M2 486h162l123 -330h2l114 330h151l-192 -486h-159zM611 486h150v-486h-150v486zM599 639q0 36 25.5 61.5t61.5 25.5t61.5 -25.5t25.5 -61.5t-25.5 -61.5t-61.5 -25.5t-61.5 25.5t-25.5 61.5z" />
    <glyph glyph-name="sevenroman" unicode="&#x2176;" horiz-adv-x="1076" 
d="M2 486h162l123 -330h2l114 330h151l-192 -486h-159zM611 486h150v-486h-150v486zM599 639q0 36 25.5 61.5t61.5 25.5t61.5 -25.5t25.5 -61.5t-25.5 -61.5t-61.5 -25.5t-61.5 25.5t-25.5 61.5zM871 486h150v-486h-150v486zM859 639q0 36 25.5 61.5t61.5 25.5t61.5 -25.5
t25.5 -61.5t-25.5 -61.5t-61.5 -25.5t-61.5 25.5t-25.5 61.5z" />
    <glyph glyph-name="eightroman" unicode="&#x2177;" horiz-adv-x="1336" 
d="M2 486h162l123 -330h2l114 330h151l-192 -486h-159zM611 486h150v-486h-150v486zM599 639q0 36 25.5 61.5t61.5 25.5t61.5 -25.5t25.5 -61.5t-25.5 -61.5t-61.5 -25.5t-61.5 25.5t-25.5 61.5zM871 486h150v-486h-150v486zM859 639q0 36 25.5 61.5t61.5 25.5t61.5 -25.5
t25.5 -61.5t-25.5 -61.5t-61.5 -25.5t-61.5 25.5t-25.5 61.5zM1131 486h150v-486h-150v486zM1119 639q0 36 25.5 61.5t61.5 25.5t61.5 -25.5t25.5 -61.5t-25.5 -61.5t-61.5 -25.5t-61.5 25.5t-25.5 61.5z" />
    <glyph glyph-name="nineroman" unicode="&#x2178;" horiz-adv-x="816" 
d="M55 486h150v-486h-150v486zM43 639q0 36 25.5 61.5t61.5 25.5t61.5 -25.5t25.5 -61.5t-25.5 -61.5t-61.5 -25.5t-61.5 25.5t-25.5 61.5zM444 260l-162 226h177l86 -132l83 132h167l-158 -226l187 -260h-177l-106 162l-114 -162h-175z" />
    <glyph glyph-name="tenroman" unicode="&#x2179;" horiz-adv-x="556" 
d="M184 260l-162 226h177l86 -132l83 132h167l-158 -226l187 -260h-177l-106 162l-114 -162h-175z" />
    <glyph glyph-name="elevenroman" unicode="&#x217a;" horiz-adv-x="816" 
d="M184 260l-162 226h177l86 -132l83 132h167l-158 -226l187 -260h-177l-106 162l-114 -162h-175zM611 486h150v-486h-150v486zM599 639q0 36 25.5 61.5t61.5 25.5t61.5 -25.5t25.5 -61.5t-25.5 -61.5t-61.5 -25.5t-61.5 25.5t-25.5 61.5z" />
    <glyph glyph-name="twelveroman" unicode="&#x217b;" horiz-adv-x="1076" 
d="M184 260l-162 226h177l86 -132l83 132h167l-158 -226l187 -260h-177l-106 162l-114 -162h-175zM611 486h150v-486h-150v486zM599 639q0 36 25.5 61.5t61.5 25.5t61.5 -25.5t25.5 -61.5t-25.5 -61.5t-61.5 -25.5t-61.5 25.5t-25.5 61.5zM871 486h150v-486h-150v486z
M859 639q0 36 25.5 61.5t61.5 25.5t61.5 -25.5t25.5 -61.5t-25.5 -61.5t-61.5 -25.5t-61.5 25.5t-25.5 61.5z" />
    <glyph glyph-name="uni217C" unicode="&#x217c;" horiz-adv-x="260" 
d="M55 756h150v-756h-150v756z" />
    <glyph glyph-name="uni217D" unicode="&#x217d;" horiz-adv-x="482" 
d="M382 329q-11 16 -31 26.5t-43 10.5q-57 0 -88.5 -34t-31.5 -89t31.5 -89t88.5 -34q25 0 43 11t31 26l99 -104q-35 -36 -82.5 -50.5t-90.5 -14.5q-56 0 -105.5 18t-86 51.5t-57.5 80.5t-21 105t21 105t57.5 80.5t86 51.5t105.5 18q43 0 90.5 -14.5t82.5 -50.5z" />
    <glyph glyph-name="uni217E" unicode="&#x217e;" horiz-adv-x="630" 
d="M563 0h-138v64h-2q-9 -13 -23.5 -26.5t-34 -24.5t-43 -18t-48.5 -7q-54 0 -98 18.5t-75.5 52t-48.5 79.5t-17 101q0 51 15.5 97.5t44 82.5t69.5 57.5t93 21.5q47 0 87.5 -14.5t66.5 -49.5h2v322h150v-756zM425 243q0 55 -31.5 89t-88.5 34t-88.5 -34t-31.5 -89t31.5 -89
t88.5 -34t88.5 34t31.5 89z" />
    <glyph glyph-name="thousandroman" unicode="&#x217f;" horiz-adv-x="870" 
d="M53 486h144v-66h2q7 14 20 28t31 25t41 18t50 7q51 0 90.5 -21t59.5 -66q26 47 63 67t91 20q49 0 82.5 -16.5t53 -45t28 -67t8.5 -82.5v-287h-150v283q0 34 -14.5 58.5t-51.5 24.5q-26 0 -43.5 -8.5t-28 -23.5t-15 -35t-4.5 -42v-257h-150v257q0 13 -1 32t-7 36t-19.5 29
t-39.5 12q-29 0 -47 -10.5t-27.5 -28t-12.5 -39.5t-3 -46v-242h-150v486z" />
    <glyph glyph-name="Ibreve" unicode="&#x12c;" horiz-adv-x="296" 
d="M70 708h156v-708h-156v708zM44 902q3 -15 13.5 -24t25 -14.5t31.5 -7.5t34 -2q39 0 66.5 7.5t38.5 40.5h79q-4 -38 -20 -65.5t-40.5 -45t-56 -25.5t-67.5 -8t-68 7.5t-57 25t-41 45t-18 66.5h80z" />
    <glyph glyph-name="ibreve" unicode="&#x12d;" horiz-adv-x="260" 
d="M55 486h150v-486h-150v486zM26 681q3 -15 13.5 -24t25 -14.5t31.5 -7.5t34 -2q39 0 66.5 7.5t38.5 40.5h79q-4 -38 -20 -65.5t-40.5 -45t-56 -25.5t-67.5 -8t-68 7.5t-57 25t-41 45t-18 66.5h80z" />
    <glyph glyph-name="clickretroflex" unicode="&#x1c3;" horiz-adv-x="444" 
d="M297 234h-150v474h150v-474zM130 86q0 19 7 36t19.5 29.5t29.5 19.5t36 7t36 -7t29.5 -19.5t19.5 -29.5t7 -36t-7 -36t-19.5 -29.5t-29.5 -19.5t-36 -7t-36 7t-29.5 19.5t-19.5 29.5t-7 36z" />
    <glyph glyph-name="DZcaron" unicode="&#x1c4;" horiz-adv-x="1389" 
d="M72 708h234q85 0 161.5 -19t133.5 -61.5t90.5 -110.5t33.5 -165q0 -86 -32.5 -151.5t-87.5 -110t-127 -67.5t-151 -23h-255v708zM228 144h81q54 0 100.5 11t80.5 36.5t53.5 67t19.5 101.5q0 52 -19.5 90.5t-52.5 63.5t-77.5 37.5t-93.5 12.5h-92v-420zM794 144l359 426
h-346v138h535v-138l-352 -426h364v-144h-560v144zM1013 902l63 -78l62 78h135l-119 -144h-163l-116 144h138z" />
    <glyph glyph-name="Dzcaron" unicode="&#x1c5;" horiz-adv-x="1259" 
d="M72 708h234q85 0 161.5 -19t133.5 -61.5t90.5 -110.5t33.5 -165q0 -86 -32.5 -151.5t-87.5 -110t-127 -67.5t-151 -23h-255v708zM228 144h81q54 0 100.5 11t80.5 36.5t53.5 67t19.5 101.5q0 52 -19.5 90.5t-52.5 63.5t-77.5 37.5t-93.5 12.5h-92v-420zM793 150l252 216
h-246v120h420v-144l-264 -222h270v-120h-432v150zM948 681l63 -78l62 78h135l-119 -144h-163l-116 144h138z" />
    <glyph glyph-name="dzcaron" unicode="&#x1c6;" horiz-adv-x="1130" 
d="M563 0h-138v64h-2q-9 -13 -23.5 -26.5t-34 -24.5t-43 -18t-48.5 -7q-54 0 -98 18.5t-75.5 52t-48.5 79.5t-17 101q0 51 15.5 97.5t44 82.5t69.5 57.5t93 21.5q47 0 87.5 -14.5t66.5 -49.5h2v322h150v-756zM425 243q0 55 -31.5 89t-88.5 34t-88.5 -34t-31.5 -89t31.5 -89
t88.5 -34t88.5 34t31.5 89zM664 150l252 216h-246v120h420v-144l-264 -222h270v-120h-432v150zM819 681l63 -78l62 78h135l-119 -144h-163l-116 144h138z" />
    <glyph glyph-name="LJ" unicode="&#x1c7;" horiz-adv-x="1037" 
d="M78 708h156v-564h289v-144h-445v708zM975 237q0 -49 -8.5 -95t-32.5 -81.5t-68.5 -57t-116.5 -21.5q-84 0 -142 40t-75 125l143 35q3 -26 23.5 -44t46.5 -18q27 0 42 13.5t22 33.5t8.5 43.5t1.5 43.5v454h156v-471z" />
    <glyph glyph-name="Lj" unicode="&#x1c8;" horiz-adv-x="797" 
d="M78 708h156v-564h289v-144h-445v708zM742 -36q0 -47 -9 -84.5t-30 -64t-55.5 -41t-85.5 -14.5q-17 0 -35 1.5t-35 6.5l8 133q18 -9 39 -9q19 0 30 10t16 25t6 32t1 31v496h150v-522zM580 639q0 36 25.5 61.5t61.5 25.5t61.5 -25.5t25.5 -61.5t-25.5 -61.5t-61.5 -25.5
t-61.5 25.5t-25.5 61.5z" />
    <glyph glyph-name="lj" unicode="&#x1c9;" horiz-adv-x="520" 
d="M55 756h150v-756h-150v756zM465 -36q0 -47 -9 -84.5t-30 -64t-55.5 -41t-85.5 -14.5q-17 0 -35 1.5t-35 6.5l8 133q18 -9 39 -9q19 0 30 10t16 25t6 32t1 31v496h150v-522zM303 639q0 36 25.5 61.5t61.5 25.5t61.5 -25.5t25.5 -61.5t-25.5 -61.5t-61.5 -25.5t-61.5 25.5
t-25.5 61.5z" />
    <glyph glyph-name="NJ" unicode="&#x1ca;" horiz-adv-x="1315" 
d="M72 708h212l301 -492h2v492h156v-708h-204l-309 504h-2v-504h-156v708zM1253 237q0 -49 -8.5 -95t-32.5 -81.5t-68.5 -57t-116.5 -21.5q-84 0 -142 40t-75 125l143 35q3 -26 23.5 -44t46.5 -18q27 0 42 13.5t22 33.5t8.5 43.5t1.5 43.5v454h156v-471z" />
    <glyph glyph-name="Nj" unicode="&#x1cb;" horiz-adv-x="1075" 
d="M72 708h212l301 -492h2v492h156v-708h-204l-309 504h-2v-504h-156v708zM1020 -36q0 -47 -9 -84.5t-30 -64t-55.5 -41t-85.5 -14.5q-17 0 -35 1.5t-35 6.5l8 133q18 -9 39 -9q19 0 30 10t16 25t6 32t1 31v496h150v-522zM858 639q0 36 25.5 61.5t61.5 25.5t61.5 -25.5
t25.5 -61.5t-25.5 -61.5t-61.5 -25.5t-61.5 25.5t-25.5 61.5z" />
    <glyph glyph-name="nj" unicode="&#x1cc;" horiz-adv-x="834" 
d="M53 486h144v-66h2q7 14 20 28t31 25t41 18t50 7q57 0 92 -17.5t54.5 -48.5t26.5 -73t7 -91v-268h-150v238q0 21 -1.5 43.5t-9 41.5t-23 31t-44.5 12t-47 -10.5t-27.5 -28t-12.5 -39.5t-3 -46v-242h-150v486zM779 -36q0 -47 -9 -84.5t-30 -64t-55.5 -41t-85.5 -14.5
q-17 0 -35 1.5t-35 6.5l8 133q18 -9 39 -9q19 0 30 10t16 25t6 32t1 31v496h150v-522zM617 639q0 36 25.5 61.5t61.5 25.5t61.5 -25.5t25.5 -61.5t-25.5 -61.5t-61.5 -25.5t-61.5 25.5t-25.5 61.5z" />
    <glyph glyph-name="Acaron" unicode="&#x1cd;" horiz-adv-x="741" 
d="M305 708h129l308 -708h-176l-61 150h-275l-59 -150h-172zM365 502l-86 -220h173zM309 902l63 -78l62 78h135l-119 -144h-163l-116 144h138z" />
    <glyph glyph-name="acaron" unicode="&#x1ce;" horiz-adv-x="537" 
d="M358 61h-2q-25 -39 -66.5 -56t-87.5 -17q-34 0 -65.5 9.5t-55.5 28.5t-38 47t-14 65q0 42 15.5 71t42 48t60.5 29.5t70.5 15.5t73 6t67.5 1q0 40 -28.5 63.5t-67.5 23.5q-37 0 -67.5 -15.5t-54.5 -42.5l-80 82q42 39 98 58.5t116 19.5q66 0 108.5 -16.5t68 -48.5
t35.5 -78.5t10 -107.5v-247h-138v61zM321 213q-17 0 -42.5 -1.5t-49 -8.5t-40 -21t-16.5 -39q0 -27 23 -40t48 -13q22 0 42.5 6t36.5 17t25.5 28t9.5 40v32h-37zM201 693l63 -78l62 78h135l-119 -144h-163l-116 144h138z" />
    <glyph glyph-name="Icaron" unicode="&#x1cf;" horiz-adv-x="296" 
d="M70 708h156v-708h-156v708zM87 902l63 -78l62 78h135l-119 -144h-163l-116 144h138z" />
    <glyph glyph-name="icaron" unicode="&#x1d0;" horiz-adv-x="260" 
d="M55 486h150v-486h-150v486zM69 681l63 -78l62 78h135l-119 -144h-163l-116 144h138z" />
    <glyph glyph-name="Ocaron" unicode="&#x1d1;" horiz-adv-x="832" 
d="M34 354q0 85 28.5 154t79.5 117.5t121 74.5t153 26t153 -26t121 -74.5t79.5 -117.5t28.5 -154t-28.5 -154t-79.5 -117.5t-121 -74.5t-153 -26t-153 26t-121 74.5t-79.5 117.5t-28.5 154zM196 354q0 -50 15.5 -91.5t44.5 -72t69.5 -47.5t90.5 -17t90.5 17t69.5 47.5
t44.5 72t15.5 91.5q0 49 -15.5 91t-44.5 72.5t-69.5 47.5t-90.5 17t-90.5 -17t-69.5 -47.5t-44.5 -72.5t-15.5 -91zM355 920l63 -78l62 78h135l-119 -144h-163l-116 144h138z" />
    <glyph glyph-name="ocaron" unicode="&#x1d2;" horiz-adv-x="610" 
d="M35 243q0 58 21 105t57.5 80.5t86 51.5t105.5 18t105.5 -18t86 -51.5t57.5 -80.5t21 -105t-21 -105t-57.5 -80.5t-86 -51.5t-105.5 -18t-105.5 18t-86 51.5t-57.5 80.5t-21 105zM185 243q0 -55 31.5 -89t88.5 -34t88.5 34t31.5 89t-31.5 89t-88.5 34t-88.5 -34t-31.5 -89
zM244 693l63 -78l62 78h135l-119 -144h-163l-116 144h138z" />
    <glyph glyph-name="Ucaron" unicode="&#x1d3;" horiz-adv-x="741" 
d="M669 273q0 -63 -19 -116t-56.5 -92t-93.5 -61t-129 -22q-74 0 -130 22t-93.5 61t-56.5 92t-19 116v435h156v-429q0 -33 10.5 -61t29.5 -48.5t45.5 -32t57.5 -11.5t57 11.5t45 32t29.5 48.5t10.5 61v429h156v-435zM309 902l63 -78l62 78h135l-119 -144h-163l-116 144h138z
" />
    <glyph glyph-name="ucaron" unicode="&#x1d4;" 
d="M521 0h-144v66h-2q-8 -14 -20.5 -28t-30.5 -25t-41 -18t-50 -7q-57 0 -92.5 17.5t-55 48.5t-26 73t-6.5 91v268h150v-238q0 -21 1.5 -43.5t9 -41.5t23 -31t44.5 -12t47 10.5t27.5 28t12.5 39.5t3 46v242h150v-486zM226 681l63 -78l62 78h135l-119 -144h-163l-116 144h138
z" />
    <glyph glyph-name="Udieresismacron" unicode="&#x1d5;" horiz-adv-x="741" 
d="M669 273q0 -63 -19 -116t-56.5 -92t-93.5 -61t-129 -22q-74 0 -130 22t-93.5 61t-56.5 92t-19 116v435h156v-429q0 -33 10.5 -61t29.5 -48.5t45.5 -32t57.5 -11.5t57 11.5t45 32t29.5 48.5t10.5 61v429h156v-435zM265 758q-18 0 -33 7t-26 19t-17.5 27.5t-6.5 32.5
q0 16 6.5 31t17.5 26t25.5 18t31.5 7q35 0 61 -23t26 -59t-24 -61t-61 -25zM473 758q-18 0 -33 7t-26 19t-17.5 27.5t-6.5 32.5q0 16 6.5 31t17.5 26t25.5 18t31.5 7q35 0 61 -23t26 -59t-24 -61t-61 -25zM540 976h-340v96h340v-96z" />
    <glyph glyph-name="udieresismacron" unicode="&#x1d6;" 
d="M521 0h-144v66h-2q-8 -14 -20.5 -28t-30.5 -25t-41 -18t-50 -7q-57 0 -92.5 17.5t-55 48.5t-26 73t-6.5 91v268h150v-238q0 -21 1.5 -43.5t9 -41.5t23 -31t44.5 -12t47 10.5t27.5 28t12.5 39.5t3 46v242h150v-486zM182 537q-18 0 -33 7t-26 19t-17.5 27.5t-6.5 32.5
q0 16 6.5 31t17.5 26t25.5 18t31.5 7q35 0 61 -23t26 -59t-24 -61t-61 -25zM390 537q-18 0 -33 7t-26 19t-17.5 27.5t-6.5 32.5q0 16 6.5 31t17.5 26t25.5 18t31.5 7q35 0 61 -23t26 -59t-24 -61t-61 -25zM457 754h-340v96h340v-96z" />
    <glyph glyph-name="Udieresisacute" unicode="&#x1d7;" horiz-adv-x="741" 
d="M669 273q0 -63 -19 -116t-56.5 -92t-93.5 -61t-129 -22q-74 0 -130 22t-93.5 61t-56.5 92t-19 116v435h156v-429q0 -33 10.5 -61t29.5 -48.5t45.5 -32t57.5 -11.5t57 11.5t45 32t29.5 48.5t10.5 61v429h156v-435zM265 758q-18 0 -33 7t-26 19t-17.5 27.5t-6.5 32.5
q0 16 6.5 31t17.5 26t25.5 18t31.5 7q35 0 61 -23t26 -59t-24 -61t-61 -25zM473 758q-18 0 -33 7t-26 19t-17.5 27.5t-6.5 32.5q0 16 6.5 31t17.5 26t25.5 18t31.5 7q35 0 61 -23t26 -59t-24 -61t-61 -25zM319 1120h204l-173 -144h-132z" />
    <glyph glyph-name="udieresisacute" unicode="&#x1d8;" 
d="M521 0h-144v66h-2q-8 -14 -20.5 -28t-30.5 -25t-41 -18t-50 -7q-57 0 -92.5 17.5t-55 48.5t-26 73t-6.5 91v268h150v-238q0 -21 1.5 -43.5t9 -41.5t23 -31t44.5 -12t47 10.5t27.5 28t12.5 39.5t3 46v242h150v-486zM182 537q-18 0 -33 7t-26 19t-17.5 27.5t-6.5 32.5
q0 16 6.5 31t17.5 26t25.5 18t31.5 7q35 0 61 -23t26 -59t-24 -61t-61 -25zM390 537q-18 0 -33 7t-26 19t-17.5 27.5t-6.5 32.5q0 16 6.5 31t17.5 26t25.5 18t31.5 7q35 0 61 -23t26 -59t-24 -61t-61 -25zM236 898h204l-173 -144h-132z" />
    <glyph glyph-name="Udieresiscaron" unicode="&#x1d9;" horiz-adv-x="741" 
d="M669 273q0 -63 -19 -116t-56.5 -92t-93.5 -61t-129 -22q-74 0 -130 22t-93.5 61t-56.5 92t-19 116v435h156v-429q0 -33 10.5 -61t29.5 -48.5t45.5 -32t57.5 -11.5t57 11.5t45 32t29.5 48.5t10.5 61v429h156v-435zM265 758q-18 0 -33 7t-26 19t-17.5 27.5t-6.5 32.5
q0 16 6.5 31t17.5 26t25.5 18t31.5 7q35 0 61 -23t26 -59t-24 -61t-61 -25zM473 758q-18 0 -33 7t-26 19t-17.5 27.5t-6.5 32.5q0 16 6.5 31t17.5 26t25.5 18t31.5 7q35 0 61 -23t26 -59t-24 -61t-61 -25zM309 1120l63 -78l62 78h135l-119 -144h-163l-116 144h138z" />
    <glyph glyph-name="udieresiscaron" unicode="&#x1da;" 
d="M521 0h-144v66h-2q-8 -14 -20.5 -28t-30.5 -25t-41 -18t-50 -7q-57 0 -92.5 17.5t-55 48.5t-26 73t-6.5 91v268h150v-238q0 -21 1.5 -43.5t9 -41.5t23 -31t44.5 -12t47 10.5t27.5 28t12.5 39.5t3 46v242h150v-486zM182 537q-18 0 -33 7t-26 19t-17.5 27.5t-6.5 32.5
q0 16 6.5 31t17.5 26t25.5 18t31.5 7q35 0 61 -23t26 -59t-24 -61t-61 -25zM390 537q-18 0 -33 7t-26 19t-17.5 27.5t-6.5 32.5q0 16 6.5 31t17.5 26t25.5 18t31.5 7q35 0 61 -23t26 -59t-24 -61t-61 -25zM226 898l63 -78l62 78h135l-119 -144h-163l-116 144h138z" />
    <glyph glyph-name="Udieresisgrave" unicode="&#x1db;" horiz-adv-x="741" 
d="M669 273q0 -63 -19 -116t-56.5 -92t-93.5 -61t-129 -22q-74 0 -130 22t-93.5 61t-56.5 92t-19 116v435h156v-429q0 -33 10.5 -61t29.5 -48.5t45.5 -32t57.5 -11.5t57 11.5t45 32t29.5 48.5t10.5 61v429h156v-435zM265 758q-18 0 -33 7t-26 19t-17.5 27.5t-6.5 32.5
q0 16 6.5 31t17.5 26t25.5 18t31.5 7q35 0 61 -23t26 -59t-24 -61t-61 -25zM473 758q-18 0 -33 7t-26 19t-17.5 27.5t-6.5 32.5q0 16 6.5 31t17.5 26t25.5 18t31.5 7q35 0 61 -23t26 -59t-24 -61t-61 -25zM523 976h-132l-173 144h204z" />
    <glyph glyph-name="udieresisgrave" unicode="&#x1dc;" 
d="M521 0h-144v66h-2q-8 -14 -20.5 -28t-30.5 -25t-41 -18t-50 -7q-57 0 -92.5 17.5t-55 48.5t-26 73t-6.5 91v268h150v-238q0 -21 1.5 -43.5t9 -41.5t23 -31t44.5 -12t47 10.5t27.5 28t12.5 39.5t3 46v242h150v-486zM182 537q-18 0 -33 7t-26 19t-17.5 27.5t-6.5 32.5
q0 16 6.5 31t17.5 26t25.5 18t31.5 7q35 0 61 -23t26 -59t-24 -61t-61 -25zM390 537q-18 0 -33 7t-26 19t-17.5 27.5t-6.5 32.5q0 16 6.5 31t17.5 26t25.5 18t31.5 7q35 0 61 -23t26 -59t-24 -61t-61 -25zM440 754h-132l-173 144h204z" />
    <glyph glyph-name="Adieresismacron" unicode="&#x1de;" horiz-adv-x="741" 
d="M305 708h129l308 -708h-176l-61 150h-275l-59 -150h-172zM365 502l-86 -220h173zM265 758q-18 0 -33 7t-26 19t-17.5 27.5t-6.5 32.5q0 16 6.5 31t17.5 26t25.5 18t31.5 7q35 0 61 -23t26 -59t-24 -61t-61 -25zM473 758q-18 0 -33 7t-26 19t-17.5 27.5t-6.5 32.5
q0 16 6.5 31t17.5 26t25.5 18t31.5 7q35 0 61 -23t26 -59t-24 -61t-61 -25zM540 976h-340v96h340v-96z" />
    <glyph glyph-name="adieresismacron" unicode="&#x1df;" horiz-adv-x="537" 
d="M358 61h-2q-25 -39 -66.5 -56t-87.5 -17q-34 0 -65.5 9.5t-55.5 28.5t-38 47t-14 65q0 42 15.5 71t42 48t60.5 29.5t70.5 15.5t73 6t67.5 1q0 40 -28.5 63.5t-67.5 23.5q-37 0 -67.5 -15.5t-54.5 -42.5l-80 82q42 39 98 58.5t116 19.5q66 0 108.5 -16.5t68 -48.5
t35.5 -78.5t10 -107.5v-247h-138v61zM321 213q-17 0 -42.5 -1.5t-49 -8.5t-40 -21t-16.5 -39q0 -27 23 -40t48 -13q22 0 42.5 6t36.5 17t25.5 28t9.5 40v32h-37zM157 549q-18 0 -33 7t-26 19t-17.5 27.5t-6.5 32.5q0 16 6.5 31t17.5 26t25.5 18t31.5 7q35 0 61 -23t26 -59
t-24 -61t-61 -25zM365 549q-18 0 -33 7t-26 19t-17.5 27.5t-6.5 32.5q0 16 6.5 31t17.5 26t25.5 18t31.5 7q35 0 61 -23t26 -59t-24 -61t-61 -25zM432 766h-340v96h340v-96z" />
    <glyph glyph-name="Adotmacron" unicode="&#x1e0;" horiz-adv-x="741" 
d="M305 708h129l308 -708h-176l-61 150h-275l-59 -150h-172zM365 502l-86 -220h173zM369 758q-18 0 -33 7t-26 19t-17.5 27.5t-6.5 32.5q0 16 6.5 31t17.5 26t25.5 18t31.5 7q35 0 61 -23t26 -59t-24 -61t-61 -25zM540 976h-340v96h340v-96z" />
    <glyph glyph-name="adotmacron" unicode="&#x1e1;" horiz-adv-x="537" 
d="M358 61h-2q-25 -39 -66.5 -56t-87.5 -17q-34 0 -65.5 9.5t-55.5 28.5t-38 47t-14 65q0 42 15.5 71t42 48t60.5 29.5t70.5 15.5t73 6t67.5 1q0 40 -28.5 63.5t-67.5 23.5q-37 0 -67.5 -15.5t-54.5 -42.5l-80 82q42 39 98 58.5t116 19.5q66 0 108.5 -16.5t68 -48.5
t35.5 -78.5t10 -107.5v-247h-138v61zM321 213q-17 0 -42.5 -1.5t-49 -8.5t-40 -21t-16.5 -39q0 -27 23 -40t48 -13q22 0 42.5 6t36.5 17t25.5 28t9.5 40v32h-37zM261 549q-18 0 -33 7t-26 19t-17.5 27.5t-6.5 32.5q0 16 6.5 31t17.5 26t25.5 18t31.5 7q35 0 61 -23t26 -59
t-24 -61t-61 -25zM432 766h-340v96h340v-96z" />
    <glyph glyph-name="AEmacron" unicode="&#x1e2;" horiz-adv-x="1037" 
d="M534 150h-263l-95 -150h-191l449 708h538v-144h-282v-132h258v-144h-258v-144h294v-144h-450v150zM534 564h-17l-179 -282h196v282zM654 758h-340v96h340v-96z" />
    <glyph glyph-name="aemacron" unicode="&#x1e3;" horiz-adv-x="852" 
d="M60 420q42 39 98 58.5t116 19.5q43 0 84.5 -14t73.5 -45q30 29 72.5 44t90.5 15q52 0 94.5 -18t72 -51.5t45.5 -80.5t16 -105v-47h-348q9 -43 39 -68.5t74 -25.5q37 0 62.5 16.5t44.5 42.5l105 -77q-36 -46 -91 -71t-114 -25q-60 0 -111 17t-83 62q-32 -44 -83.5 -61.5
t-115.5 -17.5q-34 0 -65.5 9.5t-55.5 28.5t-38 47t-14 65q0 39 15 66t39.5 45t56 27.5t65 14.5t66.5 6t60 1h18q0 44 -23 71t-64 27q-37 0 -67.5 -15.5t-54.5 -42.5zM173 139q0 -17 7.5 -26.5t18.5 -14.5t25 -6.5t26 -1.5q54 0 76.5 29t22.5 77h-18q-17 0 -44 -1t-52.5 -6
t-43.5 -17t-18 -33zM673 298q1 38 -25 65t-67 27q-25 0 -44 -8t-32.5 -20.5t-21 -29t-8.5 -34.5h198zM596 549h-340v96h340v-96z" />
    <glyph glyph-name="Gcaron" unicode="&#x1e6;" horiz-adv-x="778" 
d="M713 50q-69 -36 -144 -52t-153 -16q-83 0 -153 26t-121 74.5t-79.5 117.5t-28.5 154t28.5 154t79.5 117.5t121 74.5t153 26q85 0 156.5 -20.5t125.5 -70.5l-110 -120q-32 33 -72 50t-100 17q-50 0 -90.5 -17t-69.5 -47.5t-44.5 -72.5t-15.5 -91q0 -50 15.5 -91.5
t44.5 -72t69.5 -47.5t90.5 -17q51 0 88 11.5t59 23.5v115h-127v144h277v-370zM312 920l63 -78l62 78h135l-119 -144h-163l-116 144h138z" />
    <glyph glyph-name="gcaron" unicode="&#x1e7;" horiz-adv-x="630" 
d="M563 41q0 -138 -69.5 -209.5t-211.5 -71.5q-65 0 -128 14.5t-116 56.5l83 124q35 -29 73.5 -46t84.5 -17q69 0 101.5 33.5t32.5 85.5v47h-2q-26 -35 -64.5 -49.5t-72.5 -14.5q-54 0 -98 18.5t-75.5 52t-48.5 79.5t-17 101q0 48 15.5 94t44 81t69.5 56.5t93 21.5
q32 0 58.5 -7t47.5 -18t36 -24.5t24 -26.5h2v64h138v-445zM185 246q0 -24 9 -45.5t25.5 -38t38 -26.5t47.5 -10q25 0 47 10t38.5 26.5t25.5 38t9 45.5t-9 45.5t-25.5 38t-38.5 26.5t-47 10q-26 0 -47.5 -10t-38 -26.5t-25.5 -38t-9 -45.5zM238 693l63 -78l62 78h135
l-119 -144h-163l-116 144h138z" />
    <glyph glyph-name="Kcaron" unicode="&#x1e8;" horiz-adv-x="722" 
d="M78 708h156v-294l275 294h204l-315 -329l342 -379h-218l-288 336v-336h-156v708zM348 902l63 -78l62 78h135l-119 -144h-163l-116 144h138z" />
    <glyph glyph-name="kcaron" unicode="&#x1e9;" horiz-adv-x="556" 
d="M53 756h150v-462l166 192h184l-193 -219l198 -267h-189l-164 246h-2v-246h-150v756zM244 950l63 -78l62 78h135l-119 -144h-163l-116 144h138z" />
    <glyph glyph-name="Oogonek" unicode="&#x1ea;" horiz-adv-x="832" 
d="M34 354q0 85 28.5 154t79.5 117.5t121 74.5t153 26t153 -26t121 -74.5t79.5 -117.5t28.5 -154t-28.5 -154t-79.5 -117.5t-121 -74.5t-153 -26t-153 26t-121 74.5t-79.5 117.5t-28.5 154zM196 354q0 -50 15.5 -91.5t44.5 -72t69.5 -47.5t90.5 -17t90.5 17t69.5 47.5
t44.5 72t15.5 91.5q0 49 -15.5 91t-44.5 72.5t-69.5 47.5t-90.5 17t-90.5 -17t-69.5 -47.5t-44.5 -72.5t-15.5 -91zM523 -227q-25 -19 -51 -30.5t-58 -11.5q-21 0 -40 6t-33.5 18t-23 29.5t-8.5 39.5t10 44.5t26 44t34 39.5t35 31h68q-12 -11 -26.5 -26.5t-27 -34t-21 -37.5
t-8.5 -36t12 -31.5t30 -14.5q14 0 28.5 7t25.5 16z" />
    <glyph glyph-name="oogonek" unicode="&#x1eb;" horiz-adv-x="610" 
d="M35 243q0 58 21 105t57.5 80.5t86 51.5t105.5 18t105.5 -18t86 -51.5t57.5 -80.5t21 -105t-21 -105t-57.5 -80.5t-86 -51.5t-105.5 -18t-105.5 18t-86 51.5t-57.5 80.5t-21 105zM185 243q0 -55 31.5 -89t88.5 -34t88.5 34t31.5 89t-31.5 89t-88.5 34t-88.5 -34t-31.5 -89
zM412 -221q-25 -19 -51 -30.5t-58 -11.5q-21 0 -40 6t-33.5 18t-23 29.5t-8.5 39.5t10 44.5t26 44t34 39.5t35 31h68q-12 -11 -26.5 -26.5t-27 -34t-21 -37.5t-8.5 -36t12 -31.5t30 -14.5q14 0 28.5 7t25.5 16z" />
    <glyph glyph-name="Oogonekmacron" unicode="&#x1ec;" horiz-adv-x="832" 
d="M34 354q0 85 28.5 154t79.5 117.5t121 74.5t153 26t153 -26t121 -74.5t79.5 -117.5t28.5 -154t-28.5 -154t-79.5 -117.5t-121 -74.5t-153 -26t-153 26t-121 74.5t-79.5 117.5t-28.5 154zM196 354q0 -50 15.5 -91.5t44.5 -72t69.5 -47.5t90.5 -17t90.5 17t69.5 47.5
t44.5 72t15.5 91.5q0 49 -15.5 91t-44.5 72.5t-69.5 47.5t-90.5 17t-90.5 -17t-69.5 -47.5t-44.5 -72.5t-15.5 -91zM523 -227q-25 -19 -51 -30.5t-58 -11.5q-21 0 -40 6t-33.5 18t-23 29.5t-8.5 39.5t10 44.5t26 44t34 39.5t35 31h68q-12 -11 -26.5 -26.5t-27 -34t-21 -37.5
t-8.5 -36t12 -31.5t30 -14.5q14 0 28.5 7t25.5 16zM586 776h-340v96h340v-96z" />
    <glyph glyph-name="oogonekmacron" unicode="&#x1ed;" horiz-adv-x="610" 
d="M35 243q0 58 21 105t57.5 80.5t86 51.5t105.5 18t105.5 -18t86 -51.5t57.5 -80.5t21 -105t-21 -105t-57.5 -80.5t-86 -51.5t-105.5 -18t-105.5 18t-86 51.5t-57.5 80.5t-21 105zM185 243q0 -55 31.5 -89t88.5 -34t88.5 34t31.5 89t-31.5 89t-88.5 34t-88.5 -34t-31.5 -89
zM412 -221q-25 -19 -51 -30.5t-58 -11.5q-21 0 -40 6t-33.5 18t-23 29.5t-8.5 39.5t10 44.5t26 44t34 39.5t35 31h68q-12 -11 -26.5 -26.5t-27 -34t-21 -37.5t-8.5 -36t12 -31.5t30 -14.5q14 0 28.5 7t25.5 16zM475 549h-340v96h340v-96z" />
    <glyph glyph-name="jcaron" unicode="&#x1f0;" horiz-adv-x="260" 
d="M205 -36q0 -47 -9 -84.5t-30 -64t-55.5 -41t-85.5 -14.5q-17 0 -35 1.5t-35 6.5l8 133q18 -9 39 -9q19 0 30 10t16 25t6 32t1 31v496h150v-522zM20 681l63 -78l62 78h135l-119 -144h-163l-116 144h138z" />
    <glyph glyph-name="DZ" unicode="&#x1f1;" horiz-adv-x="1389" 
d="M72 708h234q85 0 161.5 -19t133.5 -61.5t90.5 -110.5t33.5 -165q0 -86 -32.5 -151.5t-87.5 -110t-127 -67.5t-151 -23h-255v708zM228 144h81q54 0 100.5 11t80.5 36.5t53.5 67t19.5 101.5q0 52 -19.5 90.5t-52.5 63.5t-77.5 37.5t-93.5 12.5h-92v-420zM794 144l359 426
h-346v138h535v-138l-352 -426h364v-144h-560v144z" />
    <glyph glyph-name="Dz" unicode="&#x1f2;" horiz-adv-x="1259" 
d="M72 708h234q85 0 161.5 -19t133.5 -61.5t90.5 -110.5t33.5 -165q0 -86 -32.5 -151.5t-87.5 -110t-127 -67.5t-151 -23h-255v708zM228 144h81q54 0 100.5 11t80.5 36.5t53.5 67t19.5 101.5q0 52 -19.5 90.5t-52.5 63.5t-77.5 37.5t-93.5 12.5h-92v-420zM793 150l252 216
h-246v120h420v-144l-264 -222h270v-120h-432v150z" />
    <glyph glyph-name="dz" unicode="&#x1f3;" horiz-adv-x="1130" 
d="M563 0h-138v64h-2q-9 -13 -23.5 -26.5t-34 -24.5t-43 -18t-48.5 -7q-54 0 -98 18.5t-75.5 52t-48.5 79.5t-17 101q0 51 15.5 97.5t44 82.5t69.5 57.5t93 21.5q47 0 87.5 -14.5t66.5 -49.5h2v322h150v-756zM425 243q0 55 -31.5 89t-88.5 34t-88.5 -34t-31.5 -89t31.5 -89
t88.5 -34t88.5 34t31.5 89zM664 150l252 216h-246v120h420v-144l-264 -222h270v-120h-432v150z" />
    <glyph glyph-name="Gacute" unicode="&#x1f4;" horiz-adv-x="778" 
d="M713 50q-69 -36 -144 -52t-153 -16q-83 0 -153 26t-121 74.5t-79.5 117.5t-28.5 154t28.5 154t79.5 117.5t121 74.5t153 26q85 0 156.5 -20.5t125.5 -70.5l-110 -120q-32 33 -72 50t-100 17q-50 0 -90.5 -17t-69.5 -47.5t-44.5 -72.5t-15.5 -91q0 -50 15.5 -91.5
t44.5 -72t69.5 -47.5t90.5 -17q51 0 88 11.5t59 23.5v115h-127v144h277v-370zM322 920h204l-173 -144h-132z" />
    <glyph glyph-name="gacute" unicode="&#x1f5;" horiz-adv-x="630" 
d="M563 41q0 -138 -69.5 -209.5t-211.5 -71.5q-65 0 -128 14.5t-116 56.5l83 124q35 -29 73.5 -46t84.5 -17q69 0 101.5 33.5t32.5 85.5v47h-2q-26 -35 -64.5 -49.5t-72.5 -14.5q-54 0 -98 18.5t-75.5 52t-48.5 79.5t-17 101q0 48 15.5 94t44 81t69.5 56.5t93 21.5
q32 0 58.5 -7t47.5 -18t36 -24.5t24 -26.5h2v64h138v-445zM185 246q0 -24 9 -45.5t25.5 -38t38 -26.5t47.5 -10q25 0 47 10t38.5 26.5t25.5 38t9 45.5t-9 45.5t-25.5 38t-38.5 26.5t-47 10q-26 0 -47.5 -10t-38 -26.5t-25.5 -38t-9 -45.5zM248 693h204l-173 -144h-132z" />
    <glyph glyph-name="Ngrave" unicode="&#x1f8;" horiz-adv-x="815" 
d="M72 708h212l301 -492h2v492h156v-708h-204l-309 504h-2v-504h-156v708zM560 758h-132l-173 144h204z" />
    <glyph glyph-name="ngrave" unicode="&#x1f9;" 
d="M53 486h144v-66h2q7 14 20 28t31 25t41 18t50 7q57 0 92 -17.5t54.5 -48.5t26.5 -73t7 -91v-268h-150v238q0 21 -1.5 43.5t-9 41.5t-23 31t-44.5 12t-47 -10.5t-27.5 -28t-12.5 -39.5t-3 -46v-242h-150v486zM440 549h-132l-173 144h204z" />
    <glyph glyph-name="Aringacute" unicode="&#x1fa;" horiz-adv-x="741" 
d="M305 708h129l308 -708h-176l-61 150h-275l-59 -150h-172zM365 502l-86 -220h173zM370 758q-23 0 -43 9t-35 24t-24 35t-9 43t9 43t24 35t35 24t43 9t43 -9t35 -24t24 -35t9 -43t-9 -43t-24 -35t-35 -24t-43 -9zM319 869q0 -21 15 -36t36 -15t36 15t15 36t-15 36t-36 15
t-36 -15t-15 -36zM319 1174h204l-173 -144h-132z" />
    <glyph glyph-name="aringacute" unicode="&#x1fb;" horiz-adv-x="537" 
d="M358 61h-2q-25 -39 -66.5 -56t-87.5 -17q-34 0 -65.5 9.5t-55.5 28.5t-38 47t-14 65q0 42 15.5 71t42 48t60.5 29.5t70.5 15.5t73 6t67.5 1q0 40 -28.5 63.5t-67.5 23.5q-37 0 -67.5 -15.5t-54.5 -42.5l-80 82q42 39 98 58.5t116 19.5q66 0 108.5 -16.5t68 -48.5
t35.5 -78.5t10 -107.5v-247h-138v61zM321 213q-17 0 -42.5 -1.5t-49 -8.5t-40 -21t-16.5 -39q0 -27 23 -40t48 -13q22 0 42.5 6t36.5 17t25.5 28t9.5 40v32h-37zM262 548q-23 0 -43 9t-35 24t-24 35t-9 43t9 43t24 35t35 24t43 9t43 -9t35 -24t24 -35t9 -43t-9 -43t-24 -35
t-35 -24t-43 -9zM211 659q0 -21 15 -36t36 -15t36 15t15 36t-15 36t-36 15t-36 -15t-15 -36zM211 964h204l-173 -144h-132z" />
    <glyph glyph-name="AEacute" unicode="&#x1fc;" horiz-adv-x="1037" 
d="M534 150h-263l-95 -150h-191l449 708h538v-144h-282v-132h258v-144h-258v-144h294v-144h-450v150zM534 564h-17l-179 -282h196v282zM433 902h204l-173 -144h-132z" />
    <glyph glyph-name="aeacute" unicode="&#x1fd;" horiz-adv-x="852" 
d="M60 420q42 39 98 58.5t116 19.5q43 0 84.5 -14t73.5 -45q30 29 72.5 44t90.5 15q52 0 94.5 -18t72 -51.5t45.5 -80.5t16 -105v-47h-348q9 -43 39 -68.5t74 -25.5q37 0 62.5 16.5t44.5 42.5l105 -77q-36 -46 -91 -71t-114 -25q-60 0 -111 17t-83 62q-32 -44 -83.5 -61.5
t-115.5 -17.5q-34 0 -65.5 9.5t-55.5 28.5t-38 47t-14 65q0 39 15 66t39.5 45t56 27.5t65 14.5t66.5 6t60 1h18q0 44 -23 71t-64 27q-37 0 -67.5 -15.5t-54.5 -42.5zM173 139q0 -17 7.5 -26.5t18.5 -14.5t25 -6.5t26 -1.5q54 0 76.5 29t22.5 77h-18q-17 0 -44 -1t-52.5 -6
t-43.5 -17t-18 -33zM673 298q1 38 -25 65t-67 27q-25 0 -44 -8t-32.5 -20.5t-21 -29t-8.5 -34.5h198zM375 693h204l-173 -144h-132z" />
    <glyph glyph-name="Oslashacute" unicode="&#x1fe;" horiz-adv-x="832" 
d="M127 99q-45 48 -69 112.5t-24 142.5q0 85 28.5 154t79.5 117.5t121 74.5t153 26q131 0 227 -64l92 100l55 -49l-90 -98q47 -48 72.5 -114t25.5 -147q0 -85 -28.5 -154t-79.5 -117.5t-121 -74.5t-153 -26q-69 0 -128 18t-105 50l-93 -101l-56 48zM539 548q-53 34 -123 34
q-50 0 -90.5 -17t-69.5 -47.5t-44.5 -72.5t-15.5 -91q0 -78 39 -137zM287 164q26 -18 58.5 -28t70.5 -10q50 0 90.5 17t69.5 47.5t44.5 72t15.5 91.5q0 42 -11.5 78.5t-32.5 64.5zM365 956h204l-173 -144h-132z" />
    <glyph glyph-name="oslashacute" unicode="&#x1ff;" horiz-adv-x="610" 
d="M96 76q-29 32 -45 74t-16 93q0 58 21 105t57.5 80.5t86 51.5t105.5 18q48 0 89.5 -13t75.5 -36l67 67l47 -45l-66 -66q27 -32 42 -73t15 -89q0 -58 -21 -105t-57.5 -80.5t-86 -51.5t-105.5 -18q-90 0 -159 46l-73 -73l-47 45zM370 350q-27 16 -65 16q-57 0 -88.5 -34
t-31.5 -89q0 -36 15 -63zM246 134q26 -14 59 -14q57 0 88.5 34t31.5 89q0 31 -12 57zM254 710h204l-173 -144h-132z" />
    <glyph glyph-name="Adblgrave" unicode="&#x200;" horiz-adv-x="741" 
d="M305 708h129l308 -708h-176l-61 150h-275l-59 -150h-172zM365 502l-86 -220h173zM650 758h-132l-173 144h204zM394 759h-132l-173 144h204z" />
    <glyph glyph-name="adblgrave" unicode="&#x201;" horiz-adv-x="537" 
d="M358 61h-2q-25 -39 -66.5 -56t-87.5 -17q-34 0 -65.5 9.5t-55.5 28.5t-38 47t-14 65q0 42 15.5 71t42 48t60.5 29.5t70.5 15.5t73 6t67.5 1q0 40 -28.5 63.5t-67.5 23.5q-37 0 -67.5 -15.5t-54.5 -42.5l-80 82q42 39 98 58.5t116 19.5q66 0 108.5 -16.5t68 -48.5
t35.5 -78.5t10 -107.5v-247h-138v61zM321 213q-17 0 -42.5 -1.5t-49 -8.5t-40 -21t-16.5 -39q0 -27 23 -40t48 -13q22 0 42.5 6t36.5 17t25.5 28t9.5 40v32h-37zM542 549h-132l-173 144h204zM286 550h-132l-173 144h204z" />
    <glyph glyph-name="Ainvertedbreve" unicode="&#x202;" horiz-adv-x="741" 
d="M305 708h129l308 -708h-176l-61 150h-275l-59 -150h-172zM365 502l-86 -220h173zM266 902q3 -15 13.5 -24t25 -14.5t31.5 -7.5t34 -2q39 0 66.5 7.5t38.5 40.5h79q-4 -38 -20 -65.5t-40.5 -45t-56 -25.5t-67.5 -8t-68 7.5t-57 25t-41 45t-18 66.5h80z" />
    <glyph glyph-name="ainvertedbreve" unicode="&#x203;" horiz-adv-x="537" 
d="M358 61h-2q-25 -39 -66.5 -56t-87.5 -17q-34 0 -65.5 9.5t-55.5 28.5t-38 47t-14 65q0 42 15.5 71t42 48t60.5 29.5t70.5 15.5t73 6t67.5 1q0 40 -28.5 63.5t-67.5 23.5q-37 0 -67.5 -15.5t-54.5 -42.5l-80 82q42 39 98 58.5t116 19.5q66 0 108.5 -16.5t68 -48.5
t35.5 -78.5t10 -107.5v-247h-138v61zM321 213q-17 0 -42.5 -1.5t-49 -8.5t-40 -21t-16.5 -39q0 -27 23 -40t48 -13q22 0 42.5 6t36.5 17t25.5 28t9.5 40v32h-37zM158 693q3 -15 13.5 -24t25 -14.5t31.5 -7.5t34 -2q39 0 66.5 7.5t38.5 40.5h79q-4 -38 -20 -65.5t-40.5 -45
t-56 -25.5t-67.5 -8t-68 7.5t-57 25t-41 45t-18 66.5h80z" />
    <glyph glyph-name="Edblgrave" unicode="&#x204;" horiz-adv-x="630" 
d="M78 708h481v-144h-325v-132h307v-144h-307v-144h343v-144h-499v708zM607 758h-132l-173 144h204zM351 759h-132l-173 144h204z" />
    <glyph glyph-name="edblgrave" unicode="&#x205;" 
d="M513 84q-36 -46 -91 -71t-114 -25q-56 0 -105.5 18t-86 51.5t-57.5 80.5t-21 105t21 105t57.5 80.5t86 51.5t105.5 18q52 0 94.5 -18t72 -51.5t45.5 -80.5t16 -105v-47h-348q9 -43 39 -68.5t74 -25.5q37 0 62.5 16.5t44.5 42.5zM386 298q1 38 -25 65t-67 27q-25 0 -44 -8
t-32.5 -20.5t-21 -29t-8.5 -34.5h198zM567 549h-132l-173 144h204zM311 550h-132l-173 144h204z" />
    <glyph glyph-name="Einvertedbreve" unicode="&#x206;" horiz-adv-x="630" 
d="M78 708h481v-144h-325v-132h307v-144h-307v-144h343v-144h-499v708zM223 902q3 -15 13.5 -24t25 -14.5t31.5 -7.5t34 -2q39 0 66.5 7.5t38.5 40.5h79q-4 -38 -20 -65.5t-40.5 -45t-56 -25.5t-67.5 -8t-68 7.5t-57 25t-41 45t-18 66.5h80z" />
    <glyph glyph-name="einvertedbreve" unicode="&#x207;" 
d="M513 84q-36 -46 -91 -71t-114 -25q-56 0 -105.5 18t-86 51.5t-57.5 80.5t-21 105t21 105t57.5 80.5t86 51.5t105.5 18q52 0 94.5 -18t72 -51.5t45.5 -80.5t16 -105v-47h-348q9 -43 39 -68.5t74 -25.5q37 0 62.5 16.5t44.5 42.5zM386 298q1 38 -25 65t-67 27q-25 0 -44 -8
t-32.5 -20.5t-21 -29t-8.5 -34.5h198zM183 693q3 -15 13.5 -24t25 -14.5t31.5 -7.5t34 -2q39 0 66.5 7.5t38.5 40.5h79q-4 -38 -20 -65.5t-40.5 -45t-56 -25.5t-67.5 -8t-68 7.5t-57 25t-41 45t-18 66.5h80z" />
    <glyph glyph-name="Idblgrave" unicode="&#x208;" horiz-adv-x="296" 
d="M70 708h156v-708h-156v708zM428 758h-132l-173 144h204zM172 759h-132l-173 144h204z" />
    <glyph glyph-name="idblgrave" unicode="&#x209;" horiz-adv-x="260" 
d="M55 486h150v-486h-150v486zM410 537h-132l-173 144h204zM154 538h-132l-173 144h204z" />
    <glyph glyph-name="Iinvertedbreve" unicode="&#x20a;" horiz-adv-x="296" 
d="M70 708h156v-708h-156v708zM44 902q3 -15 13.5 -24t25 -14.5t31.5 -7.5t34 -2q39 0 66.5 7.5t38.5 40.5h79q-4 -38 -20 -65.5t-40.5 -45t-56 -25.5t-67.5 -8t-68 7.5t-57 25t-41 45t-18 66.5h80z" />
    <glyph glyph-name="iinvertedbreve" unicode="&#x20b;" horiz-adv-x="260" 
d="M55 486h150v-486h-150v486zM26 681q3 -15 13.5 -24t25 -14.5t31.5 -7.5t34 -2q39 0 66.5 7.5t38.5 40.5h79q-4 -38 -20 -65.5t-40.5 -45t-56 -25.5t-67.5 -8t-68 7.5t-57 25t-41 45t-18 66.5h80z" />
    <glyph glyph-name="Odblgrave" unicode="&#x20c;" horiz-adv-x="832" 
d="M34 354q0 85 28.5 154t79.5 117.5t121 74.5t153 26t153 -26t121 -74.5t79.5 -117.5t28.5 -154t-28.5 -154t-79.5 -117.5t-121 -74.5t-153 -26t-153 26t-121 74.5t-79.5 117.5t-28.5 154zM196 354q0 -50 15.5 -91.5t44.5 -72t69.5 -47.5t90.5 -17t90.5 17t69.5 47.5
t44.5 72t15.5 91.5q0 49 -15.5 91t-44.5 72.5t-69.5 47.5t-90.5 17t-90.5 -17t-69.5 -47.5t-44.5 -72.5t-15.5 -91zM696 776h-132l-173 144h204zM440 777h-132l-173 144h204z" />
    <glyph glyph-name="odblgrave" unicode="&#x20d;" horiz-adv-x="610" 
d="M35 243q0 58 21 105t57.5 80.5t86 51.5t105.5 18t105.5 -18t86 -51.5t57.5 -80.5t21 -105t-21 -105t-57.5 -80.5t-86 -51.5t-105.5 -18t-105.5 18t-86 51.5t-57.5 80.5t-21 105zM185 243q0 -55 31.5 -89t88.5 -34t88.5 34t31.5 89t-31.5 89t-88.5 34t-88.5 -34t-31.5 -89
zM585 549h-132l-173 144h204zM329 550h-132l-173 144h204z" />
    <glyph glyph-name="Oinvertedbreve" unicode="&#x20e;" horiz-adv-x="832" 
d="M34 354q0 85 28.5 154t79.5 117.5t121 74.5t153 26t153 -26t121 -74.5t79.5 -117.5t28.5 -154t-28.5 -154t-79.5 -117.5t-121 -74.5t-153 -26t-153 26t-121 74.5t-79.5 117.5t-28.5 154zM196 354q0 -50 15.5 -91.5t44.5 -72t69.5 -47.5t90.5 -17t90.5 17t69.5 47.5
t44.5 72t15.5 91.5q0 49 -15.5 91t-44.5 72.5t-69.5 47.5t-90.5 17t-90.5 -17t-69.5 -47.5t-44.5 -72.5t-15.5 -91zM312 920q3 -15 13.5 -24t25 -14.5t31.5 -7.5t34 -2q39 0 66.5 7.5t38.5 40.5h79q-4 -38 -20 -65.5t-40.5 -45t-56 -25.5t-67.5 -8t-68 7.5t-57 25t-41 45
t-18 66.5h80z" />
    <glyph glyph-name="oinvertedbreve" unicode="&#x20f;" horiz-adv-x="610" 
d="M35 243q0 58 21 105t57.5 80.5t86 51.5t105.5 18t105.5 -18t86 -51.5t57.5 -80.5t21 -105t-21 -105t-57.5 -80.5t-86 -51.5t-105.5 -18t-105.5 18t-86 51.5t-57.5 80.5t-21 105zM185 243q0 -55 31.5 -89t88.5 -34t88.5 34t31.5 89t-31.5 89t-88.5 34t-88.5 -34t-31.5 -89
zM201 693q3 -15 13.5 -24t25 -14.5t31.5 -7.5t34 -2q39 0 66.5 7.5t38.5 40.5h79q-4 -38 -20 -65.5t-40.5 -45t-56 -25.5t-67.5 -8t-68 7.5t-57 25t-41 45t-18 66.5h80z" />
    <glyph glyph-name="Rdblgrave" unicode="&#x210;" horiz-adv-x="648" 
d="M72 708h274q54 0 102.5 -10.5t85 -35t58 -66t21.5 -103.5q0 -75 -39 -127.5t-114 -66.5l180 -299h-187l-148 283h-77v-283h-156v708zM228 415h92q21 0 44.5 1.5t42.5 9t31.5 23.5t12.5 45q0 27 -11 43t-28 24.5t-39 11.5t-43 3h-102v-161zM636 758h-132l-173 144h204z
M380 759h-132l-173 144h204z" />
    <glyph glyph-name="rdblgrave" unicode="&#x211;" horiz-adv-x="407" 
d="M53 486h150v-78h2q24 45 57 67.5t83 22.5q13 0 26 -1t24 -4v-137q-16 5 -31.5 7.5t-32.5 2.5q-43 0 -68 -12t-38.5 -33.5t-17.5 -51.5t-4 -66v-203h-150v486zM504 549h-132l-173 144h204zM248 550h-132l-173 144h204z" />
    <glyph glyph-name="Rinvertedbreve" unicode="&#x212;" horiz-adv-x="648" 
d="M72 708h274q54 0 102.5 -10.5t85 -35t58 -66t21.5 -103.5q0 -75 -39 -127.5t-114 -66.5l180 -299h-187l-148 283h-77v-283h-156v708zM228 415h92q21 0 44.5 1.5t42.5 9t31.5 23.5t12.5 45q0 27 -11 43t-28 24.5t-39 11.5t-43 3h-102v-161zM252 902q3 -15 13.5 -24
t25 -14.5t31.5 -7.5t34 -2q39 0 66.5 7.5t38.5 40.5h79q-4 -38 -20 -65.5t-40.5 -45t-56 -25.5t-67.5 -8t-68 7.5t-57 25t-41 45t-18 66.5h80z" />
    <glyph glyph-name="rinvertedbreve" unicode="&#x213;" horiz-adv-x="407" 
d="M53 486h150v-78h2q24 45 57 67.5t83 22.5q13 0 26 -1t24 -4v-137q-16 5 -31.5 7.5t-32.5 2.5q-43 0 -68 -12t-38.5 -33.5t-17.5 -51.5t-4 -66v-203h-150v486zM120 693q3 -15 13.5 -24t25 -14.5t31.5 -7.5t34 -2q39 0 66.5 7.5t38.5 40.5h79q-4 -38 -20 -65.5t-40.5 -45
t-56 -25.5t-67.5 -8t-68 7.5t-57 25t-41 45t-18 66.5h80z" />
    <glyph glyph-name="Udblgrave" unicode="&#x214;" horiz-adv-x="741" 
d="M669 273q0 -63 -19 -116t-56.5 -92t-93.5 -61t-129 -22q-74 0 -130 22t-93.5 61t-56.5 92t-19 116v435h156v-429q0 -33 10.5 -61t29.5 -48.5t45.5 -32t57.5 -11.5t57 11.5t45 32t29.5 48.5t10.5 61v429h156v-435zM650 758h-132l-173 144h204zM394 759h-132l-173 144h204z
" />
    <glyph glyph-name="udblgrave" unicode="&#x215;" 
d="M521 0h-144v66h-2q-8 -14 -20.5 -28t-30.5 -25t-41 -18t-50 -7q-57 0 -92.5 17.5t-55 48.5t-26 73t-6.5 91v268h150v-238q0 -21 1.5 -43.5t9 -41.5t23 -31t44.5 -12t47 10.5t27.5 28t12.5 39.5t3 46v242h150v-486zM567 537h-132l-173 144h204zM311 538h-132l-173 144h204
z" />
    <glyph glyph-name="Uinvertedbreve" unicode="&#x216;" horiz-adv-x="741" 
d="M669 273q0 -63 -19 -116t-56.5 -92t-93.5 -61t-129 -22q-74 0 -130 22t-93.5 61t-56.5 92t-19 116v435h156v-429q0 -33 10.5 -61t29.5 -48.5t45.5 -32t57.5 -11.5t57 11.5t45 32t29.5 48.5t10.5 61v429h156v-435zM266 902q3 -15 13.5 -24t25 -14.5t31.5 -7.5t34 -2
q39 0 66.5 7.5t38.5 40.5h79q-4 -38 -20 -65.5t-40.5 -45t-56 -25.5t-67.5 -8t-68 7.5t-57 25t-41 45t-18 66.5h80z" />
    <glyph glyph-name="uinvertedbreve" unicode="&#x217;" 
d="M521 0h-144v66h-2q-8 -14 -20.5 -28t-30.5 -25t-41 -18t-50 -7q-57 0 -92.5 17.5t-55 48.5t-26 73t-6.5 91v268h150v-238q0 -21 1.5 -43.5t9 -41.5t23 -31t44.5 -12t47 10.5t27.5 28t12.5 39.5t3 46v242h150v-486zM183 681q3 -15 13.5 -24t25 -14.5t31.5 -7.5t34 -2
q39 0 66.5 7.5t38.5 40.5h79q-4 -38 -20 -65.5t-40.5 -45t-56 -25.5t-67.5 -8t-68 7.5t-57 25t-41 45t-18 66.5h80z" />
    <glyph glyph-name="Hcaron" unicode="&#x21e;" horiz-adv-x="759" 
d="M72 708h156v-264h303v264h156v-708h-156v306h-303v-306h-156v708zM318 902l63 -78l62 78h135l-119 -144h-163l-116 144h138z" />
    <glyph glyph-name="hcaron" unicode="&#x21f;" 
d="M203 756v-336h2q5 14 17 28t29 25t40 18t50 7q57 0 92 -17.5t54.5 -48.5t26.5 -73t7 -91v-268h-150v238q0 21 -1.5 43.5t-9 41.5t-23 31t-44.5 12t-47 -10.5t-27.5 -28t-12.5 -39.5t-3 -46v-242h-150v756h150zM226 950l63 -78l62 78h135l-119 -144h-163l-116 144h138z
" />
    <glyph glyph-name="Adotaccent" unicode="&#x226;" horiz-adv-x="741" 
d="M305 708h129l308 -708h-176l-61 150h-275l-59 -150h-172zM365 502l-86 -220h173zM369 758q-18 0 -33 7t-26 19t-17.5 27.5t-6.5 32.5q0 16 6.5 31t17.5 26t25.5 18t31.5 7q35 0 61 -23t26 -59t-24 -61t-61 -25z" />
    <glyph glyph-name="adotaccent" unicode="&#x227;" horiz-adv-x="537" 
d="M358 61h-2q-25 -39 -66.5 -56t-87.5 -17q-34 0 -65.5 9.5t-55.5 28.5t-38 47t-14 65q0 42 15.5 71t42 48t60.5 29.5t70.5 15.5t73 6t67.5 1q0 40 -28.5 63.5t-67.5 23.5q-37 0 -67.5 -15.5t-54.5 -42.5l-80 82q42 39 98 58.5t116 19.5q66 0 108.5 -16.5t68 -48.5
t35.5 -78.5t10 -107.5v-247h-138v61zM321 213q-17 0 -42.5 -1.5t-49 -8.5t-40 -21t-16.5 -39q0 -27 23 -40t48 -13q22 0 42.5 6t36.5 17t25.5 28t9.5 40v32h-37zM261 549q-18 0 -33 7t-26 19t-17.5 27.5t-6.5 32.5q0 16 6.5 31t17.5 26t25.5 18t31.5 7q35 0 61 -23t26 -59
t-24 -61t-61 -25z" />
    <glyph glyph-name="Ecedilla" unicode="&#x228;" horiz-adv-x="630" 
d="M78 708h481v-144h-325v-132h307v-144h-307v-144h343v-144h-499v708zM333 -60q22 0 44.5 -2.5t40.5 -11t29.5 -25t11.5 -44.5q0 -27 -14.5 -46t-36 -30t-45.5 -16t-43 -5q-30 0 -64.5 8.5t-60.5 21.5l25 47q12 -5 31.5 -11t45.5 -6q12 0 23.5 1.5t21 5t15.5 9.5t6 16
q0 18 -17.5 26t-32.5 8q-17 0 -36 -8l-32 29l62 93h67z" />
    <glyph glyph-name="ecedilla" unicode="&#x229;" 
d="M513 84q-36 -46 -91 -71t-114 -25q-56 0 -105.5 18t-86 51.5t-57.5 80.5t-21 105t21 105t57.5 80.5t86 51.5t105.5 18q52 0 94.5 -18t72 -51.5t45.5 -80.5t16 -105v-47h-348q9 -43 39 -68.5t74 -25.5q37 0 62.5 16.5t44.5 42.5zM386 298q1 38 -25 65t-67 27q-25 0 -44 -8
t-32.5 -20.5t-21 -29t-8.5 -34.5h198zM293 -71q22 0 44.5 -2.5t40.5 -11t29.5 -25t11.5 -44.5q0 -27 -14.5 -46t-36 -30t-45.5 -16t-43 -5q-30 0 -64.5 8.5t-60.5 21.5l25 47q12 -5 31.5 -11t45.5 -6q12 0 23.5 1.5t21 5t15.5 9.5t6 16q0 18 -17.5 26t-32.5 8q-17 0 -36 -8
l-32 29l62 93h67z" />
    <glyph glyph-name="Odieresismacron" unicode="&#x22a;" horiz-adv-x="832" 
d="M34 354q0 85 28.5 154t79.5 117.5t121 74.5t153 26t153 -26t121 -74.5t79.5 -117.5t28.5 -154t-28.5 -154t-79.5 -117.5t-121 -74.5t-153 -26t-153 26t-121 74.5t-79.5 117.5t-28.5 154zM196 354q0 -50 15.5 -91.5t44.5 -72t69.5 -47.5t90.5 -17t90.5 17t69.5 47.5
t44.5 72t15.5 91.5q0 49 -15.5 91t-44.5 72.5t-69.5 47.5t-90.5 17t-90.5 -17t-69.5 -47.5t-44.5 -72.5t-15.5 -91zM311 776q-18 0 -33 7t-26 19t-17.5 27.5t-6.5 32.5q0 16 6.5 31t17.5 26t25.5 18t31.5 7q35 0 61 -23t26 -59t-24 -61t-61 -25zM519 776q-18 0 -33 7t-26 19
t-17.5 27.5t-6.5 32.5q0 16 6.5 31t17.5 26t25.5 18t31.5 7q35 0 61 -23t26 -59t-24 -61t-61 -25zM586 994h-340v96h340v-96z" />
    <glyph glyph-name="odieresismacron" unicode="&#x22b;" horiz-adv-x="610" 
d="M35 243q0 58 21 105t57.5 80.5t86 51.5t105.5 18t105.5 -18t86 -51.5t57.5 -80.5t21 -105t-21 -105t-57.5 -80.5t-86 -51.5t-105.5 -18t-105.5 18t-86 51.5t-57.5 80.5t-21 105zM185 243q0 -55 31.5 -89t88.5 -34t88.5 34t31.5 89t-31.5 89t-88.5 34t-88.5 -34t-31.5 -89
zM200 549q-18 0 -33 7t-26 19t-17.5 27.5t-6.5 32.5q0 16 6.5 31t17.5 26t25.5 18t31.5 7q35 0 61 -23t26 -59t-24 -61t-61 -25zM408 549q-18 0 -33 7t-26 19t-17.5 27.5t-6.5 32.5q0 16 6.5 31t17.5 26t25.5 18t31.5 7q35 0 61 -23t26 -59t-24 -61t-61 -25zM475 766h-340
v96h340v-96z" />
    <glyph glyph-name="Otildemacron" unicode="&#x22c;" horiz-adv-x="832" 
d="M34 354q0 85 28.5 154t79.5 117.5t121 74.5t153 26t153 -26t121 -74.5t79.5 -117.5t28.5 -154t-28.5 -154t-79.5 -117.5t-121 -74.5t-153 -26t-153 26t-121 74.5t-79.5 117.5t-28.5 154zM196 354q0 -50 15.5 -91.5t44.5 -72t69.5 -47.5t90.5 -17t90.5 17t69.5 47.5
t44.5 72t15.5 91.5q0 49 -15.5 91t-44.5 72.5t-69.5 47.5t-90.5 17t-90.5 -17t-69.5 -47.5t-44.5 -72.5t-15.5 -91zM220 776q4 25 14 50t25.5 44.5t37.5 31.5t50 12q25 0 45 -6t42 -15q14 -5 27.5 -10t28.5 -5q17 0 27 10.5t17 25.5h78q-5 -29 -14 -54t-24.5 -43.5
t-38 -29.5t-53.5 -11q-22 0 -41.5 6.5t-36.5 14.5t-32.5 14.5t-30.5 6.5q-17 0 -27 -14t-15 -28h-79zM586 964h-340v96h340v-96z" />
    <glyph glyph-name="otildemacron" unicode="&#x22d;" horiz-adv-x="610" 
d="M35 243q0 58 21 105t57.5 80.5t86 51.5t105.5 18t105.5 -18t86 -51.5t57.5 -80.5t21 -105t-21 -105t-57.5 -80.5t-86 -51.5t-105.5 -18t-105.5 18t-86 51.5t-57.5 80.5t-21 105zM185 243q0 -55 31.5 -89t88.5 -34t88.5 34t31.5 89t-31.5 89t-88.5 34t-88.5 -34t-31.5 -89
zM109 549q4 25 14 50t25.5 44.5t37.5 31.5t50 12q25 0 45 -6t42 -15q14 -5 27.5 -10t28.5 -5q17 0 27 10.5t17 25.5h78q-5 -29 -14 -54t-24.5 -43.5t-38 -29.5t-53.5 -11q-22 0 -41.5 6.5t-36.5 14.5t-32.5 14.5t-30.5 6.5q-17 0 -27 -14t-15 -28h-79zM475 736h-340v96h340
v-96z" />
    <glyph glyph-name="Odotaccent" unicode="&#x22e;" horiz-adv-x="832" 
d="M34 354q0 85 28.5 154t79.5 117.5t121 74.5t153 26t153 -26t121 -74.5t79.5 -117.5t28.5 -154t-28.5 -154t-79.5 -117.5t-121 -74.5t-153 -26t-153 26t-121 74.5t-79.5 117.5t-28.5 154zM196 354q0 -50 15.5 -91.5t44.5 -72t69.5 -47.5t90.5 -17t90.5 17t69.5 47.5
t44.5 72t15.5 91.5q0 49 -15.5 91t-44.5 72.5t-69.5 47.5t-90.5 17t-90.5 -17t-69.5 -47.5t-44.5 -72.5t-15.5 -91zM415 776q-18 0 -33 7t-26 19t-17.5 27.5t-6.5 32.5q0 16 6.5 31t17.5 26t25.5 18t31.5 7q35 0 61 -23t26 -59t-24 -61t-61 -25z" />
    <glyph glyph-name="odotaccent" unicode="&#x22f;" horiz-adv-x="610" 
d="M35 243q0 58 21 105t57.5 80.5t86 51.5t105.5 18t105.5 -18t86 -51.5t57.5 -80.5t21 -105t-21 -105t-57.5 -80.5t-86 -51.5t-105.5 -18t-105.5 18t-86 51.5t-57.5 80.5t-21 105zM185 243q0 -55 31.5 -89t88.5 -34t88.5 34t31.5 89t-31.5 89t-88.5 34t-88.5 -34t-31.5 -89
zM304 549q-18 0 -33 7t-26 19t-17.5 27.5t-6.5 32.5q0 16 6.5 31t17.5 26t25.5 18t31.5 7q35 0 61 -23t26 -59t-24 -61t-61 -25z" />
    <glyph glyph-name="Odotaccentmacron" unicode="&#x230;" horiz-adv-x="832" 
d="M34 354q0 85 28.5 154t79.5 117.5t121 74.5t153 26t153 -26t121 -74.5t79.5 -117.5t28.5 -154t-28.5 -154t-79.5 -117.5t-121 -74.5t-153 -26t-153 26t-121 74.5t-79.5 117.5t-28.5 154zM196 354q0 -50 15.5 -91.5t44.5 -72t69.5 -47.5t90.5 -17t90.5 17t69.5 47.5
t44.5 72t15.5 91.5q0 49 -15.5 91t-44.5 72.5t-69.5 47.5t-90.5 17t-90.5 -17t-69.5 -47.5t-44.5 -72.5t-15.5 -91zM415 776q-18 0 -33 7t-26 19t-17.5 27.5t-6.5 32.5q0 16 6.5 31t17.5 26t25.5 18t31.5 7q35 0 61 -23t26 -59t-24 -61t-61 -25zM586 994h-340v96h340v-96z
" />
    <glyph glyph-name="odotaccentmacron" unicode="&#x231;" horiz-adv-x="610" 
d="M35 243q0 58 21 105t57.5 80.5t86 51.5t105.5 18t105.5 -18t86 -51.5t57.5 -80.5t21 -105t-21 -105t-57.5 -80.5t-86 -51.5t-105.5 -18t-105.5 18t-86 51.5t-57.5 80.5t-21 105zM185 243q0 -55 31.5 -89t88.5 -34t88.5 34t31.5 89t-31.5 89t-88.5 34t-88.5 -34t-31.5 -89
zM304 549q-18 0 -33 7t-26 19t-17.5 27.5t-6.5 32.5q0 16 6.5 31t17.5 26t25.5 18t31.5 7q35 0 61 -23t26 -59t-24 -61t-61 -25zM475 766h-340v96h340v-96z" />
    <glyph glyph-name="Ymacron" unicode="&#x232;" horiz-adv-x="648" 
d="M246 302l-266 406h194l150 -265l159 265h185l-266 -406v-302h-156v302zM494 758h-340v96h340v-96z" />
    <glyph glyph-name="ymacron" unicode="&#x233;" horiz-adv-x="556" 
d="M333 -79q-15 -39 -29 -69t-35.5 -50.5t-54.5 -31t-87 -10.5q-58 0 -112 18l20 123q34 -15 70 -15q25 0 41 5.5t26.5 16t17.5 25.5t15 35l11 28l-213 490h162l125 -321h2l107 321h154zM448 537h-340v96h340v-96z" />
    <glyph glyph-name="commaturnedmod" unicode="&#x2bb;" horiz-adv-x="296" 
d="M129 708h128l-74 -282h-144z" />
    <glyph glyph-name="afii57929" unicode="&#x2bc;" horiz-adv-x="296" 
d="M167 426h-128l74 282h144z" />
    <glyph glyph-name="uni02EE" unicode="&#x2ee;" horiz-adv-x="520" 
d="M386 426h-128l74 282h144zM172 426h-128l74 282h144z" />
    <glyph glyph-name="palochkacyrillic" unicode="&#x4c0;" horiz-adv-x="296" 
d="M70 708h156v-708h-156v708z" />
    <glyph glyph-name="Aringbelow" unicode="&#x1e00;" horiz-adv-x="741" 
d="M305 708h129l308 -708h-176l-61 150h-275l-59 -150h-172zM365 502l-86 -220h173zM370 -271q-23 0 -43 9t-35 24t-24 35t-9 43t9 43t24 35t35 24t43 9t43 -9t35 -24t24 -35t9 -43t-9 -43t-24 -35t-35 -24t-43 -9zM319 -160q0 -21 15 -36t36 -15t36 15t15 36t-15 36t-36 15
t-36 -15t-15 -36z" />
    <glyph glyph-name="aringbelow" unicode="&#x1e01;" horiz-adv-x="537" 
d="M358 61h-2q-25 -39 -66.5 -56t-87.5 -17q-34 0 -65.5 9.5t-55.5 28.5t-38 47t-14 65q0 42 15.5 71t42 48t60.5 29.5t70.5 15.5t73 6t67.5 1q0 40 -28.5 63.5t-67.5 23.5q-37 0 -67.5 -15.5t-54.5 -42.5l-80 82q42 39 98 58.5t116 19.5q66 0 108.5 -16.5t68 -48.5
t35.5 -78.5t10 -107.5v-247h-138v61zM321 213q-17 0 -42.5 -1.5t-49 -8.5t-40 -21t-16.5 -39q0 -27 23 -40t48 -13q22 0 42.5 6t36.5 17t25.5 28t9.5 40v32h-37zM262 -283q-23 0 -43 9t-35 24t-24 35t-9 43t9 43t24 35t35 24t43 9t43 -9t35 -24t24 -35t9 -43t-9 -43t-24 -35
t-35 -24t-43 -9zM211 -172q0 -21 15 -36t36 -15t36 15t15 36t-15 36t-36 15t-36 -15t-15 -36z" />
    <glyph glyph-name="Bdotaccent" unicode="&#x1e02;" horiz-adv-x="648" 
d="M72 708h264q46 0 92.5 -6.5t83.5 -26t60 -54.5t23 -93q0 -60 -33.5 -99.5t-88.5 -56.5v-2q35 -5 63.5 -19.5t49 -37t31.5 -52.5t11 -64q0 -56 -24 -93.5t-62 -60.5t-85.5 -33t-94.5 -10h-290v708zM228 425h113q18 0 35.5 4t31.5 13t22.5 24t8.5 36q0 22 -9.5 36.5
t-24.5 22.5t-34 11.5t-37 3.5h-106v-151zM228 132h140q18 0 36.5 4t33.5 14t24.5 26t9.5 39q0 25 -12.5 40.5t-31.5 23.5t-41 11t-41 3h-118v-161zM349 758q-18 0 -33 7t-26 19t-17.5 27.5t-6.5 32.5q0 16 6.5 31t17.5 26t25.5 18t31.5 7q35 0 61 -23t26 -59t-24 -61
t-61 -25z" />
    <glyph glyph-name="bdotaccent" unicode="&#x1e03;" horiz-adv-x="630" 
d="M67 756h150v-322h2q26 35 66.5 49.5t87.5 14.5q52 0 93 -21.5t69.5 -57.5t44 -82.5t15.5 -97.5q0 -55 -17 -101t-48.5 -79.5t-75.5 -52t-98 -18.5q-26 0 -49 7t-42.5 18t-34 24.5t-23.5 26.5h-2v-64h-138v756zM205 243q0 -55 31.5 -89t88.5 -34t88.5 34t31.5 89t-31.5 89
t-88.5 34t-88.5 -34t-31.5 -89zM330 806q-18 0 -33 7t-26 19t-17.5 27.5t-6.5 32.5q0 16 6.5 31t17.5 26t25.5 18t31.5 7q35 0 61 -23t26 -59t-24 -61t-61 -25z" />
    <glyph glyph-name="Bdotbelow" unicode="&#x1e04;" horiz-adv-x="648" 
d="M72 708h264q46 0 92.5 -6.5t83.5 -26t60 -54.5t23 -93q0 -60 -33.5 -99.5t-88.5 -56.5v-2q35 -5 63.5 -19.5t49 -37t31.5 -52.5t11 -64q0 -56 -24 -93.5t-62 -60.5t-85.5 -33t-94.5 -10h-290v708zM228 425h113q18 0 35.5 4t31.5 13t22.5 24t8.5 36q0 22 -9.5 36.5
t-24.5 22.5t-34 11.5t-37 3.5h-106v-151zM228 132h140q18 0 36.5 4t33.5 14t24.5 26t9.5 39q0 25 -12.5 40.5t-31.5 23.5t-41 11t-41 3h-118v-161zM349 -217q-18 0 -33 7t-26 19t-17.5 27.5t-6.5 32.5q0 16 6.5 31t17.5 26t25.5 18t31.5 7q35 0 61 -23t26 -59t-24 -61
t-61 -25z" />
    <glyph glyph-name="bdotbelow" unicode="&#x1e05;" horiz-adv-x="630" 
d="M67 756h150v-322h2q26 35 66.5 49.5t87.5 14.5q52 0 93 -21.5t69.5 -57.5t44 -82.5t15.5 -97.5q0 -55 -17 -101t-48.5 -79.5t-75.5 -52t-98 -18.5q-26 0 -49 7t-42.5 18t-34 24.5t-23.5 26.5h-2v-64h-138v756zM205 243q0 -55 31.5 -89t88.5 -34t88.5 34t31.5 89t-31.5 89
t-88.5 34t-88.5 -34t-31.5 -89zM330 -229q-18 0 -33 7t-26 19t-17.5 27.5t-6.5 32.5q0 16 6.5 31t17.5 26t25.5 18t31.5 7q35 0 61 -23t26 -59t-24 -61t-61 -25z" />
    <glyph glyph-name="Blinebelow" unicode="&#x1e06;" horiz-adv-x="648" 
d="M72 708h264q46 0 92.5 -6.5t83.5 -26t60 -54.5t23 -93q0 -60 -33.5 -99.5t-88.5 -56.5v-2q35 -5 63.5 -19.5t49 -37t31.5 -52.5t11 -64q0 -56 -24 -93.5t-62 -60.5t-85.5 -33t-94.5 -10h-290v708zM228 425h113q18 0 35.5 4t31.5 13t22.5 24t8.5 36q0 22 -9.5 36.5
t-24.5 22.5t-34 11.5t-37 3.5h-106v-151zM228 132h140q18 0 36.5 4t33.5 14t24.5 26t9.5 39q0 25 -12.5 40.5t-31.5 23.5t-41 11t-41 3h-118v-161zM520 -145h-340v96h340v-96z" />
    <glyph glyph-name="blinebelow" unicode="&#x1e07;" horiz-adv-x="630" 
d="M67 756h150v-322h2q26 35 66.5 49.5t87.5 14.5q52 0 93 -21.5t69.5 -57.5t44 -82.5t15.5 -97.5q0 -55 -17 -101t-48.5 -79.5t-75.5 -52t-98 -18.5q-26 0 -49 7t-42.5 18t-34 24.5t-23.5 26.5h-2v-64h-138v756zM205 243q0 -55 31.5 -89t88.5 -34t88.5 34t31.5 89t-31.5 89
t-88.5 34t-88.5 -34t-31.5 -89zM501 -157h-340v96h340v-96z" />
    <glyph glyph-name="Ccedillaacute" unicode="&#x1e08;" horiz-adv-x="685" 
d="M535 524q-23 28 -56.5 43t-77.5 15t-81.5 -17t-65 -47.5t-43 -72.5t-15.5 -91q0 -50 15.5 -91.5t42.5 -72t63.5 -47.5t78.5 -17q48 0 85 20t61 56l130 -97q-45 -63 -114 -93t-142 -30h-9.5t-9.5 1l-29 -43q22 0 44.5 -2.5t40.5 -11t29.5 -25t11.5 -44.5q0 -27 -14.5 -46
t-36 -30t-45.5 -16t-43 -5q-30 0 -64.5 8.5t-60.5 21.5l25 47q12 -5 31.5 -11t45.5 -6q12 0 23.5 1.5t21 5t15.5 9.5t6 16q0 18 -17.5 26t-32.5 8q-17 0 -36 -8l-32 29l54 82q-67 12 -122 42.5t-94.5 77.5t-61.5 109t-22 136q0 85 28.5 154t79.5 117.5t121 74.5t153 26
q30 0 62.5 -5.5t64 -17.5t60.5 -32t52 -49zM302 920h204l-173 -144h-132z" />
    <glyph glyph-name="ccedillaacute" unicode="&#x1e09;" horiz-adv-x="482" 
d="M382 329q-11 16 -31 26.5t-43 10.5q-57 0 -88.5 -34t-31.5 -89t31.5 -89t88.5 -34q25 0 43 11t31 26l99 -104q-35 -36 -82.5 -50.5t-90.5 -14.5q-7 0 -9 1l-33 -49q22 0 44.5 -2.5t40.5 -11t29.5 -25t11.5 -44.5q0 -27 -14.5 -46t-36 -30t-45.5 -16t-43 -5
q-30 0 -64.5 8.5t-60.5 21.5l25 47q12 -5 31.5 -11t45.5 -6q12 0 23.5 1.5t21 5t15.5 9.5t6 16q0 18 -17.5 26t-32.5 8q-17 0 -36 -8l-32 29l60 90q-44 9 -80.5 30.5t-63 53t-41.5 72.5t-15 90q0 58 21 105t57.5 80.5t86 51.5t105.5 18q43 0 90.5 -14.5t82.5 -50.5zM208 693
h204l-173 -144h-132z" />
    <glyph glyph-name="Ddotaccent" unicode="&#x1e0a;" horiz-adv-x="759" 
d="M72 708h234q85 0 161.5 -19t133.5 -61.5t90.5 -110.5t33.5 -165q0 -86 -32.5 -151.5t-87.5 -110t-127 -67.5t-151 -23h-255v708zM228 144h81q54 0 100.5 11t80.5 36.5t53.5 67t19.5 101.5q0 52 -19.5 90.5t-52.5 63.5t-77.5 37.5t-93.5 12.5h-92v-420zM397 758
q-18 0 -33 7t-26 19t-17.5 27.5t-6.5 32.5q0 16 6.5 31t17.5 26t25.5 18t31.5 7q35 0 61 -23t26 -59t-24 -61t-61 -25z" />
    <glyph glyph-name="ddotaccent" unicode="&#x1e0b;" horiz-adv-x="630" 
d="M563 0h-138v64h-2q-9 -13 -23.5 -26.5t-34 -24.5t-43 -18t-48.5 -7q-54 0 -98 18.5t-75.5 52t-48.5 79.5t-17 101q0 51 15.5 97.5t44 82.5t69.5 57.5t93 21.5q47 0 87.5 -14.5t66.5 -49.5h2v322h150v-756zM425 243q0 55 -31.5 89t-88.5 34t-88.5 -34t-31.5 -89t31.5 -89
t88.5 -34t88.5 34t31.5 89zM298 806q-18 0 -33 7t-26 19t-17.5 27.5t-6.5 32.5q0 16 6.5 31t17.5 26t25.5 18t31.5 7q35 0 61 -23t26 -59t-24 -61t-61 -25z" />
    <glyph glyph-name="Ddotbelow" unicode="&#x1e0c;" horiz-adv-x="759" 
d="M72 708h234q85 0 161.5 -19t133.5 -61.5t90.5 -110.5t33.5 -165q0 -86 -32.5 -151.5t-87.5 -110t-127 -67.5t-151 -23h-255v708zM228 144h81q54 0 100.5 11t80.5 36.5t53.5 67t19.5 101.5q0 52 -19.5 90.5t-52.5 63.5t-77.5 37.5t-93.5 12.5h-92v-420zM397 -217
q-18 0 -33 7t-26 19t-17.5 27.5t-6.5 32.5q0 16 6.5 31t17.5 26t25.5 18t31.5 7q35 0 61 -23t26 -59t-24 -61t-61 -25z" />
    <glyph glyph-name="ddotbelow" unicode="&#x1e0d;" horiz-adv-x="630" 
d="M563 0h-138v64h-2q-9 -13 -23.5 -26.5t-34 -24.5t-43 -18t-48.5 -7q-54 0 -98 18.5t-75.5 52t-48.5 79.5t-17 101q0 51 15.5 97.5t44 82.5t69.5 57.5t93 21.5q47 0 87.5 -14.5t66.5 -49.5h2v322h150v-756zM425 243q0 55 -31.5 89t-88.5 34t-88.5 -34t-31.5 -89t31.5 -89
t88.5 -34t88.5 34t31.5 89zM298 -229q-18 0 -33 7t-26 19t-17.5 27.5t-6.5 32.5q0 16 6.5 31t17.5 26t25.5 18t31.5 7q35 0 61 -23t26 -59t-24 -61t-61 -25z" />
    <glyph glyph-name="Dlinebelow" unicode="&#x1e0e;" horiz-adv-x="759" 
d="M72 708h234q85 0 161.5 -19t133.5 -61.5t90.5 -110.5t33.5 -165q0 -86 -32.5 -151.5t-87.5 -110t-127 -67.5t-151 -23h-255v708zM228 144h81q54 0 100.5 11t80.5 36.5t53.5 67t19.5 101.5q0 52 -19.5 90.5t-52.5 63.5t-77.5 37.5t-93.5 12.5h-92v-420zM568 -145h-340v96
h340v-96z" />
    <glyph glyph-name="dlinebelow" unicode="&#x1e0f;" horiz-adv-x="630" 
d="M563 0h-138v64h-2q-9 -13 -23.5 -26.5t-34 -24.5t-43 -18t-48.5 -7q-54 0 -98 18.5t-75.5 52t-48.5 79.5t-17 101q0 51 15.5 97.5t44 82.5t69.5 57.5t93 21.5q47 0 87.5 -14.5t66.5 -49.5h2v322h150v-756zM425 243q0 55 -31.5 89t-88.5 34t-88.5 -34t-31.5 -89t31.5 -89
t88.5 -34t88.5 34t31.5 89zM469 -157h-340v96h340v-96z" />
    <glyph glyph-name="Dcommaaccent" unicode="&#x1e10;" horiz-adv-x="759" 
d="M72 708h234q85 0 161.5 -19t133.5 -61.5t90.5 -110.5t33.5 -165q0 -86 -32.5 -151.5t-87.5 -110t-127 -67.5t-151 -23h-255v708zM228 144h81q54 0 100.5 11t80.5 36.5t53.5 67t19.5 101.5q0 52 -19.5 90.5t-52.5 63.5t-77.5 37.5t-93.5 12.5h-92v-420zM363 -50h144
l-90 -282h-128z" />
    <glyph glyph-name="dcommaaccent" unicode="&#x1e11;" horiz-adv-x="630" 
d="M563 0h-138v64h-2q-9 -13 -23.5 -26.5t-34 -24.5t-43 -18t-48.5 -7q-54 0 -98 18.5t-75.5 52t-48.5 79.5t-17 101q0 51 15.5 97.5t44 82.5t69.5 57.5t93 21.5q47 0 87.5 -14.5t66.5 -49.5h2v322h150v-756zM425 243q0 55 -31.5 89t-88.5 34t-88.5 -34t-31.5 -89t31.5 -89
t88.5 -34t88.5 34t31.5 89zM264 -62h144l-90 -282h-128z" />
    <glyph glyph-name="Dcircumflexbelow" unicode="&#x1e12;" horiz-adv-x="759" 
d="M72 708h234q85 0 161.5 -19t133.5 -61.5t90.5 -110.5t33.5 -165q0 -86 -32.5 -151.5t-87.5 -110t-127 -67.5t-151 -23h-255v708zM228 144h81q54 0 100.5 11t80.5 36.5t53.5 67t19.5 101.5q0 52 -19.5 90.5t-52.5 63.5t-77.5 37.5t-93.5 12.5h-92v-420zM459 -193l-63 78
l-62 -78h-135l119 144h163l116 -144h-138z" />
    <glyph glyph-name="dcircumflexbelow" unicode="&#x1e13;" horiz-adv-x="630" 
d="M563 0h-138v64h-2q-9 -13 -23.5 -26.5t-34 -24.5t-43 -18t-48.5 -7q-54 0 -98 18.5t-75.5 52t-48.5 79.5t-17 101q0 51 15.5 97.5t44 82.5t69.5 57.5t93 21.5q47 0 87.5 -14.5t66.5 -49.5h2v322h150v-756zM425 243q0 55 -31.5 89t-88.5 34t-88.5 -34t-31.5 -89t31.5 -89
t88.5 -34t88.5 34t31.5 89zM360 -205l-63 78l-62 -78h-135l119 144h163l116 -144h-138z" />
    <glyph glyph-name="Emacrongrave" unicode="&#x1e14;" horiz-adv-x="630" 
d="M78 708h481v-144h-325v-132h307v-144h-307v-144h343v-144h-499v708zM497 758h-340v96h340v-96zM480 904h-132l-173 144h204z" />
    <glyph glyph-name="emacrongrave" unicode="&#x1e15;" 
d="M513 84q-36 -46 -91 -71t-114 -25q-56 0 -105.5 18t-86 51.5t-57.5 80.5t-21 105t21 105t57.5 80.5t86 51.5t105.5 18q52 0 94.5 -18t72 -51.5t45.5 -80.5t16 -105v-47h-348q9 -43 39 -68.5t74 -25.5q37 0 62.5 16.5t44.5 42.5zM386 298q1 38 -25 65t-67 27q-25 0 -44 -8
t-32.5 -20.5t-21 -29t-8.5 -34.5h198zM457 549h-340v96h340v-96zM440 694h-132l-173 144h204z" />
    <glyph glyph-name="Emacronacute" unicode="&#x1e16;" horiz-adv-x="630" 
d="M78 708h481v-144h-325v-132h307v-144h-307v-144h343v-144h-499v708zM497 758h-340v96h340v-96zM276 1048h204l-173 -144h-132z" />
    <glyph glyph-name="emacronacute" unicode="&#x1e17;" 
d="M513 84q-36 -46 -91 -71t-114 -25q-56 0 -105.5 18t-86 51.5t-57.5 80.5t-21 105t21 105t57.5 80.5t86 51.5t105.5 18q52 0 94.5 -18t72 -51.5t45.5 -80.5t16 -105v-47h-348q9 -43 39 -68.5t74 -25.5q37 0 62.5 16.5t44.5 42.5zM386 298q1 38 -25 65t-67 27q-25 0 -44 -8
t-32.5 -20.5t-21 -29t-8.5 -34.5h198zM457 549h-340v96h340v-96zM236 838h204l-173 -144h-132z" />
    <glyph glyph-name="Ecircumflexbelow" unicode="&#x1e18;" horiz-adv-x="630" 
d="M78 708h481v-144h-325v-132h307v-144h-307v-144h343v-144h-499v708zM388 -193l-63 78l-62 -78h-135l119 144h163l116 -144h-138z" />
    <glyph glyph-name="ecircumflexbelow" unicode="&#x1e19;" 
d="M513 84q-36 -46 -91 -71t-114 -25q-56 0 -105.5 18t-86 51.5t-57.5 80.5t-21 105t21 105t57.5 80.5t86 51.5t105.5 18q52 0 94.5 -18t72 -51.5t45.5 -80.5t16 -105v-47h-348q9 -43 39 -68.5t74 -25.5q37 0 62.5 16.5t44.5 42.5zM386 298q1 38 -25 65t-67 27q-25 0 -44 -8
t-32.5 -20.5t-21 -29t-8.5 -34.5h198zM348 -205l-63 78l-62 -78h-135l119 144h163l116 -144h-138z" />
    <glyph glyph-name="Etildebelow" unicode="&#x1e1a;" horiz-adv-x="630" 
d="M78 708h481v-144h-325v-132h307v-144h-307v-144h343v-144h-499v708zM131 -187q4 25 14 50t25.5 44.5t37.5 31.5t50 12q25 0 45 -6t42 -15q14 -5 27.5 -10t28.5 -5q17 0 27 10.5t17 25.5h78q-5 -29 -14 -54t-24.5 -43.5t-38 -29.5t-53.5 -11q-22 0 -41.5 6.5t-36.5 14.5
t-32.5 14.5t-30.5 6.5q-17 0 -27 -14t-15 -28h-79z" />
    <glyph glyph-name="etildebelow" unicode="&#x1e1b;" 
d="M513 84q-36 -46 -91 -71t-114 -25q-56 0 -105.5 18t-86 51.5t-57.5 80.5t-21 105t21 105t57.5 80.5t86 51.5t105.5 18q52 0 94.5 -18t72 -51.5t45.5 -80.5t16 -105v-47h-348q9 -43 39 -68.5t74 -25.5q37 0 62.5 16.5t44.5 42.5zM386 298q1 38 -25 65t-67 27q-25 0 -44 -8
t-32.5 -20.5t-21 -29t-8.5 -34.5h198zM91 -199q4 25 14 50t25.5 44.5t37.5 31.5t50 12q25 0 45 -6t42 -15q14 -5 27.5 -10t28.5 -5q17 0 27 10.5t17 25.5h78q-5 -29 -14 -54t-24.5 -43.5t-38 -29.5t-53.5 -11q-22 0 -41.5 6.5t-36.5 14.5t-32.5 14.5t-30.5 6.5
q-17 0 -27 -14t-15 -28h-79z" />
    <glyph glyph-name="Ecedillabreve" unicode="&#x1e1c;" horiz-adv-x="630" 
d="M78 708h481v-144h-325v-132h307v-144h-307v-144h343v-144h-499v708zM223 902q3 -15 13.5 -24t25 -14.5t31.5 -7.5t34 -2q39 0 66.5 7.5t38.5 40.5h79q-4 -38 -20 -65.5t-40.5 -45t-56 -25.5t-67.5 -8t-68 7.5t-57 25t-41 45t-18 66.5h80zM333 -60q22 0 44.5 -2.5
t40.5 -11t29.5 -25t11.5 -44.5q0 -27 -14.5 -46t-36 -30t-45.5 -16t-43 -5q-30 0 -64.5 8.5t-60.5 21.5l25 47q12 -5 31.5 -11t45.5 -6q12 0 23.5 1.5t21 5t15.5 9.5t6 16q0 18 -17.5 26t-32.5 8q-17 0 -36 -8l-32 29l62 93h67z" />
    <glyph glyph-name="ecedillabreve" unicode="&#x1e1d;" 
d="M513 84q-36 -46 -91 -71t-114 -25q-56 0 -105.5 18t-86 51.5t-57.5 80.5t-21 105t21 105t57.5 80.5t86 51.5t105.5 18q52 0 94.5 -18t72 -51.5t45.5 -80.5t16 -105v-47h-348q9 -43 39 -68.5t74 -25.5q37 0 62.5 16.5t44.5 42.5zM386 298q1 38 -25 65t-67 27q-25 0 -44 -8
t-32.5 -20.5t-21 -29t-8.5 -34.5h198zM183 693q3 -15 13.5 -24t25 -14.5t31.5 -7.5t34 -2q39 0 66.5 7.5t38.5 40.5h79q-4 -38 -20 -65.5t-40.5 -45t-56 -25.5t-67.5 -8t-68 7.5t-57 25t-41 45t-18 66.5h80zM293 -71q22 0 44.5 -2.5t40.5 -11t29.5 -25t11.5 -44.5
q0 -27 -14.5 -46t-36 -30t-45.5 -16t-43 -5q-30 0 -64.5 8.5t-60.5 21.5l25 47q12 -5 31.5 -11t45.5 -6q12 0 23.5 1.5t21 5t15.5 9.5t6 16q0 18 -17.5 26t-32.5 8q-17 0 -36 -8l-32 29l62 93h67z" />
    <glyph glyph-name="Fdotaccent" unicode="&#x1e1e;" horiz-adv-x="593" 
d="M78 708h475v-144h-319v-144h295v-144h-295v-276h-156v708zM314 758q-18 0 -33 7t-26 19t-17.5 27.5t-6.5 32.5q0 16 6.5 31t17.5 26t25.5 18t31.5 7q35 0 61 -23t26 -59t-24 -61t-61 -25z" />
    <glyph glyph-name="fdotaccent" unicode="&#x1e1f;" horiz-adv-x="370" 
d="M105 366h-99v120h99v86q0 40 7 75.5t27 62.5t57.5 42.5t98.5 15.5q23 0 45 -2t43 -7l-7 -127q-13 5 -24 7.5t-25 2.5q-36 0 -54 -15.5t-18 -63.5v-77h111v-120h-111v-366h-150v366zM193 818q-18 0 -33 7t-26 19t-17.5 27.5t-6.5 32.5q0 16 6.5 31t17.5 26t25.5 18t31.5 7
q35 0 61 -23t26 -59t-24 -61t-61 -25z" />
    <glyph glyph-name="Gmacron" unicode="&#x1e20;" horiz-adv-x="778" 
d="M713 50q-69 -36 -144 -52t-153 -16q-83 0 -153 26t-121 74.5t-79.5 117.5t-28.5 154t28.5 154t79.5 117.5t121 74.5t153 26q85 0 156.5 -20.5t125.5 -70.5l-110 -120q-32 33 -72 50t-100 17q-50 0 -90.5 -17t-69.5 -47.5t-44.5 -72.5t-15.5 -91q0 -50 15.5 -91.5
t44.5 -72t69.5 -47.5t90.5 -17q51 0 88 11.5t59 23.5v115h-127v144h277v-370zM543 776h-340v96h340v-96z" />
    <glyph glyph-name="gmacron" unicode="&#x1e21;" horiz-adv-x="630" 
d="M563 41q0 -138 -69.5 -209.5t-211.5 -71.5q-65 0 -128 14.5t-116 56.5l83 124q35 -29 73.5 -46t84.5 -17q69 0 101.5 33.5t32.5 85.5v47h-2q-26 -35 -64.5 -49.5t-72.5 -14.5q-54 0 -98 18.5t-75.5 52t-48.5 79.5t-17 101q0 48 15.5 94t44 81t69.5 56.5t93 21.5
q32 0 58.5 -7t47.5 -18t36 -24.5t24 -26.5h2v64h138v-445zM185 246q0 -24 9 -45.5t25.5 -38t38 -26.5t47.5 -10q25 0 47 10t38.5 26.5t25.5 38t9 45.5t-9 45.5t-25.5 38t-38.5 26.5t-47 10q-26 0 -47.5 -10t-38 -26.5t-25.5 -38t-9 -45.5zM469 549h-340v96h340v-96z" />
    <glyph glyph-name="Hdotaccent" unicode="&#x1e22;" horiz-adv-x="759" 
d="M72 708h156v-264h303v264h156v-708h-156v306h-303v-306h-156v708zM378 758q-18 0 -33 7t-26 19t-17.5 27.5t-6.5 32.5q0 16 6.5 31t17.5 26t25.5 18t31.5 7q35 0 61 -23t26 -59t-24 -61t-61 -25z" />
    <glyph glyph-name="hdotaccent" unicode="&#x1e23;" 
d="M203 756v-336h2q5 14 17 28t29 25t40 18t50 7q57 0 92 -17.5t54.5 -48.5t26.5 -73t7 -91v-268h-150v238q0 21 -1.5 43.5t-9 41.5t-23 31t-44.5 12t-47 -10.5t-27.5 -28t-12.5 -39.5t-3 -46v-242h-150v756h150zM286 806q-18 0 -33 7t-26 19t-17.5 27.5t-6.5 32.5
q0 16 6.5 31t17.5 26t25.5 18t31.5 7q35 0 61 -23t26 -59t-24 -61t-61 -25z" />
    <glyph glyph-name="Hdotbelow" unicode="&#x1e24;" horiz-adv-x="759" 
d="M72 708h156v-264h303v264h156v-708h-156v306h-303v-306h-156v708zM378 -217q-18 0 -33 7t-26 19t-17.5 27.5t-6.5 32.5q0 16 6.5 31t17.5 26t25.5 18t31.5 7q35 0 61 -23t26 -59t-24 -61t-61 -25z" />
    <glyph glyph-name="hdotbelow" unicode="&#x1e25;" 
d="M203 756v-336h2q5 14 17 28t29 25t40 18t50 7q57 0 92 -17.5t54.5 -48.5t26.5 -73t7 -91v-268h-150v238q0 21 -1.5 43.5t-9 41.5t-23 31t-44.5 12t-47 -10.5t-27.5 -28t-12.5 -39.5t-3 -46v-242h-150v756h150zM286 -217q-18 0 -33 7t-26 19t-17.5 27.5t-6.5 32.5
q0 16 6.5 31t17.5 26t25.5 18t31.5 7q35 0 61 -23t26 -59t-24 -61t-61 -25z" />
    <glyph glyph-name="Hdieresis" unicode="&#x1e26;" horiz-adv-x="759" 
d="M72 708h156v-264h303v264h156v-708h-156v306h-303v-306h-156v708zM274 758q-18 0 -33 7t-26 19t-17.5 27.5t-6.5 32.5q0 16 6.5 31t17.5 26t25.5 18t31.5 7q35 0 61 -23t26 -59t-24 -61t-61 -25zM482 758q-18 0 -33 7t-26 19t-17.5 27.5t-6.5 32.5q0 16 6.5 31t17.5 26
t25.5 18t31.5 7q35 0 61 -23t26 -59t-24 -61t-61 -25z" />
    <glyph glyph-name="hdieresis" unicode="&#x1e27;" 
d="M203 756v-336h2q5 14 17 28t29 25t40 18t50 7q57 0 92 -17.5t54.5 -48.5t26.5 -73t7 -91v-268h-150v238q0 21 -1.5 43.5t-9 41.5t-23 31t-44.5 12t-47 -10.5t-27.5 -28t-12.5 -39.5t-3 -46v-242h-150v756h150zM182 806q-18 0 -33 7t-26 19t-17.5 27.5t-6.5 32.5
q0 16 6.5 31t17.5 26t25.5 18t31.5 7q35 0 61 -23t26 -59t-24 -61t-61 -25zM390 806q-18 0 -33 7t-26 19t-17.5 27.5t-6.5 32.5q0 16 6.5 31t17.5 26t25.5 18t31.5 7q35 0 61 -23t26 -59t-24 -61t-61 -25z" />
    <glyph glyph-name="Hcedilla" unicode="&#x1e28;" horiz-adv-x="759" 
d="M72 708h156v-264h303v264h156v-708h-156v306h-303v-306h-156v708zM210 -60q22 0 44.5 -2.5t40.5 -11t29.5 -25t11.5 -44.5q0 -27 -14.5 -46t-36 -30t-45.5 -16t-43 -5q-30 0 -64.5 8.5t-60.5 21.5l25 47q12 -5 31.5 -11t45.5 -6q12 0 23.5 1.5t21 5t15.5 9.5t6 16
q0 18 -17.5 26t-32.5 8q-17 0 -36 -8l-32 29l62 93h67z" />
    <glyph glyph-name="hcedilla" unicode="&#x1e29;" 
d="M203 756v-336h2q5 14 17 28t29 25t40 18t50 7q57 0 92 -17.5t54.5 -48.5t26.5 -73t7 -91v-268h-150v238q0 21 -1.5 43.5t-9 41.5t-23 31t-44.5 12t-47 -10.5t-27.5 -28t-12.5 -39.5t-3 -46v-242h-150v756h150zM191 -60q22 0 44.5 -2.5t40.5 -11t29.5 -25t11.5 -44.5
q0 -27 -14.5 -46t-36 -30t-45.5 -16t-43 -5q-30 0 -64.5 8.5t-60.5 21.5l25 47q12 -5 31.5 -11t45.5 -6q12 0 23.5 1.5t21 5t15.5 9.5t6 16q0 18 -17.5 26t-32.5 8q-17 0 -36 -8l-32 29l62 93h67z" />
    <glyph glyph-name="Hbrevebelow" unicode="&#x1e2a;" horiz-adv-x="759" 
d="M72 708h156v-264h303v264h156v-708h-156v306h-303v-306h-156v708zM275 -49q3 -15 13.5 -24t25 -14.5t31.5 -7.5t34 -2q39 0 66.5 7.5t38.5 40.5h79q-4 -38 -20 -65.5t-40.5 -45t-56 -25.5t-67.5 -8t-68 7.5t-57 25t-41 45t-18 66.5h80z" />
    <glyph glyph-name="hbrevebelow" unicode="&#x1e2b;" 
d="M203 756v-336h2q5 14 17 28t29 25t40 18t50 7q57 0 92 -17.5t54.5 -48.5t26.5 -73t7 -91v-268h-150v238q0 21 -1.5 43.5t-9 41.5t-23 31t-44.5 12t-47 -10.5t-27.5 -28t-12.5 -39.5t-3 -46v-242h-150v756h150zM183 -49q3 -15 13.5 -24t25 -14.5t31.5 -7.5t34 -2
q39 0 66.5 7.5t38.5 40.5h79q-4 -38 -20 -65.5t-40.5 -45t-56 -25.5t-67.5 -8t-68 7.5t-57 25t-41 45t-18 66.5h80z" />
    <glyph glyph-name="Itildebelow" unicode="&#x1e2c;" horiz-adv-x="296" 
d="M70 708h156v-708h-156v708zM-48 -187q4 25 14 50t25.5 44.5t37.5 31.5t50 12q25 0 45 -6t42 -15q14 -5 27.5 -10t28.5 -5q17 0 27 10.5t17 25.5h78q-5 -29 -14 -54t-24.5 -43.5t-38 -29.5t-53.5 -11q-22 0 -41.5 6.5t-36.5 14.5t-32.5 14.5t-30.5 6.5q-17 0 -27 -14
t-15 -28h-79z" />
    <glyph glyph-name="itildebelow" unicode="&#x1e2d;" horiz-adv-x="260" 
d="M55 486h150v-486h-150v486zM43 639q0 36 25.5 61.5t61.5 25.5t61.5 -25.5t25.5 -61.5t-25.5 -61.5t-61.5 -25.5t-61.5 25.5t-25.5 61.5zM-66 -187q4 25 14 50t25.5 44.5t37.5 31.5t50 12q25 0 45 -6t42 -15q14 -5 27.5 -10t28.5 -5q17 0 27 10.5t17 25.5h78
q-5 -29 -14 -54t-24.5 -43.5t-38 -29.5t-53.5 -11q-22 0 -41.5 6.5t-36.5 14.5t-32.5 14.5t-30.5 6.5q-17 0 -27 -14t-15 -28h-79z" />
    <glyph glyph-name="Idieresisacute" unicode="&#x1e2e;" horiz-adv-x="296" 
d="M70 708h156v-708h-156v708zM43 758q-18 0 -33 7t-26 19t-17.5 27.5t-6.5 32.5q0 16 6.5 31t17.5 26t25.5 18t31.5 7q35 0 61 -23t26 -59t-24 -61t-61 -25zM251 758q-18 0 -33 7t-26 19t-17.5 27.5t-6.5 32.5q0 16 6.5 31t17.5 26t25.5 18t31.5 7q35 0 61 -23t26 -59
t-24 -61t-61 -25zM98 1120h204l-173 -144h-132z" />
    <glyph glyph-name="idieresisacute" unicode="&#x1e2f;" horiz-adv-x="260" 
d="M55 486h150v-486h-150v486zM25 537q-18 0 -33 7t-26 19t-17.5 27.5t-6.5 32.5q0 16 6.5 31t17.5 26t25.5 18t31.5 7q35 0 61 -23t26 -59t-24 -61t-61 -25zM233 537q-18 0 -33 7t-26 19t-17.5 27.5t-6.5 32.5q0 16 6.5 31t17.5 26t25.5 18t31.5 7q35 0 61 -23t26 -59
t-24 -61t-61 -25zM80 898h204l-173 -144h-132z" />
    <glyph glyph-name="Kacute" unicode="&#x1e30;" horiz-adv-x="722" 
d="M78 708h156v-294l275 294h204l-315 -329l342 -379h-218l-288 336v-336h-156v708zM358 902h204l-173 -144h-132z" />
    <glyph glyph-name="kacute" unicode="&#x1e31;" horiz-adv-x="556" 
d="M53 756h150v-462l166 192h184l-193 -219l198 -267h-189l-164 246h-2v-246h-150v756zM254 950h204l-173 -144h-132z" />
    <glyph glyph-name="Kdotbelow" unicode="&#x1e32;" horiz-adv-x="722" 
d="M78 708h156v-294l275 294h204l-315 -329l342 -379h-218l-288 336v-336h-156v708zM408 -217q-18 0 -33 7t-26 19t-17.5 27.5t-6.5 32.5q0 16 6.5 31t17.5 26t25.5 18t31.5 7q35 0 61 -23t26 -59t-24 -61t-61 -25z" />
    <glyph glyph-name="kdotbelow" unicode="&#x1e33;" horiz-adv-x="556" 
d="M53 756h150v-462l166 192h184l-193 -219l198 -267h-189l-164 246h-2v-246h-150v756zM304 -217q-18 0 -33 7t-26 19t-17.5 27.5t-6.5 32.5q0 16 6.5 31t17.5 26t25.5 18t31.5 7q35 0 61 -23t26 -59t-24 -61t-61 -25z" />
    <glyph glyph-name="Klinebelow" unicode="&#x1e34;" horiz-adv-x="722" 
d="M78 708h156v-294l275 294h204l-315 -329l342 -379h-218l-288 336v-336h-156v708zM579 -145h-340v96h340v-96z" />
    <glyph glyph-name="klinebelow" unicode="&#x1e35;" horiz-adv-x="556" 
d="M53 756h150v-462l166 192h184l-193 -219l198 -267h-189l-164 246h-2v-246h-150v756zM475 -145h-340v96h340v-96z" />
    <glyph glyph-name="Ldotbelow" unicode="&#x1e36;" horiz-adv-x="537" 
d="M78 708h156v-564h289v-144h-445v708zM299 -217q-18 0 -33 7t-26 19t-17.5 27.5t-6.5 32.5q0 16 6.5 31t17.5 26t25.5 18t31.5 7q35 0 61 -23t26 -59t-24 -61t-61 -25z" />
    <glyph glyph-name="ldotbelow" unicode="&#x1e37;" horiz-adv-x="260" 
d="M55 756h150v-756h-150v756zM129 -217q-18 0 -33 7t-26 19t-17.5 27.5t-6.5 32.5q0 16 6.5 31t17.5 26t25.5 18t31.5 7q35 0 61 -23t26 -59t-24 -61t-61 -25z" />
    <glyph glyph-name="Ldotbelowmacron" unicode="&#x1e38;" horiz-adv-x="537" 
d="M78 708h156v-564h289v-144h-445v708zM299 -217q-18 0 -33 7t-26 19t-17.5 27.5t-6.5 32.5q0 16 6.5 31t17.5 26t25.5 18t31.5 7q35 0 61 -23t26 -59t-24 -61t-61 -25zM470 758h-340v96h340v-96z" />
    <glyph glyph-name="ldotbelowmacron" unicode="&#x1e39;" horiz-adv-x="260" 
d="M55 756h150v-756h-150v756zM129 -217q-18 0 -33 7t-26 19t-17.5 27.5t-6.5 32.5q0 16 6.5 31t17.5 26t25.5 18t31.5 7q35 0 61 -23t26 -59t-24 -61t-61 -25zM300 806h-340v96h340v-96z" />
    <glyph glyph-name="Llinebelow" unicode="&#x1e3a;" horiz-adv-x="537" 
d="M78 708h156v-564h289v-144h-445v708zM470 -145h-340v96h340v-96z" />
    <glyph glyph-name="llinebelow" unicode="&#x1e3b;" horiz-adv-x="260" 
d="M55 756h150v-756h-150v756zM300 -145h-340v96h340v-96z" />
    <glyph glyph-name="Lcircumflexbelow" unicode="&#x1e3c;" horiz-adv-x="537" 
d="M78 708h156v-564h289v-144h-445v708zM361 -193l-63 78l-62 -78h-135l119 144h163l116 -144h-138z" />
    <glyph glyph-name="lcircumflexbelow" unicode="&#x1e3d;" horiz-adv-x="260" 
d="M55 756h150v-756h-150v756zM191 -193l-63 78l-62 -78h-135l119 144h163l116 -144h-138z" />
    <glyph glyph-name="Macute" unicode="&#x1e3e;" horiz-adv-x="944" 
d="M72 708h236l163 -462h2l164 462h235v-708h-156v543h-2l-186 -543h-119l-179 543h-2v-543h-156v708zM421 902h204l-173 -144h-132z" />
    <glyph glyph-name="macute" unicode="&#x1e3f;" horiz-adv-x="870" 
d="M53 486h144v-66h2q7 14 20 28t31 25t41 18t50 7q51 0 90.5 -21t59.5 -66q26 47 63 67t91 20q49 0 82.5 -16.5t53 -45t28 -67t8.5 -82.5v-287h-150v283q0 34 -14.5 58.5t-51.5 24.5q-26 0 -43.5 -8.5t-28 -23.5t-15 -35t-4.5 -42v-257h-150v257q0 13 -1 32t-7 36t-19.5 29
t-39.5 12q-29 0 -47 -10.5t-27.5 -28t-12.5 -39.5t-3 -46v-242h-150v486zM384 693h204l-173 -144h-132z" />
    <glyph glyph-name="Mdotaccent" unicode="&#x1e40;" horiz-adv-x="944" 
d="M72 708h236l163 -462h2l164 462h235v-708h-156v543h-2l-186 -543h-119l-179 543h-2v-543h-156v708zM471 758q-18 0 -33 7t-26 19t-17.5 27.5t-6.5 32.5q0 16 6.5 31t17.5 26t25.5 18t31.5 7q35 0 61 -23t26 -59t-24 -61t-61 -25z" />
    <glyph glyph-name="mdotaccent" unicode="&#x1e41;" horiz-adv-x="870" 
d="M53 486h144v-66h2q7 14 20 28t31 25t41 18t50 7q51 0 90.5 -21t59.5 -66q26 47 63 67t91 20q49 0 82.5 -16.5t53 -45t28 -67t8.5 -82.5v-287h-150v283q0 34 -14.5 58.5t-51.5 24.5q-26 0 -43.5 -8.5t-28 -23.5t-15 -35t-4.5 -42v-257h-150v257q0 13 -1 32t-7 36t-19.5 29
t-39.5 12q-29 0 -47 -10.5t-27.5 -28t-12.5 -39.5t-3 -46v-242h-150v486zM434 549q-18 0 -33 7t-26 19t-17.5 27.5t-6.5 32.5q0 16 6.5 31t17.5 26t25.5 18t31.5 7q35 0 61 -23t26 -59t-24 -61t-61 -25z" />
    <glyph glyph-name="Mdotbelow" unicode="&#x1e42;" horiz-adv-x="944" 
d="M72 708h236l163 -462h2l164 462h235v-708h-156v543h-2l-186 -543h-119l-179 543h-2v-543h-156v708zM471 -217q-18 0 -33 7t-26 19t-17.5 27.5t-6.5 32.5q0 16 6.5 31t17.5 26t25.5 18t31.5 7q35 0 61 -23t26 -59t-24 -61t-61 -25z" />
    </font>
</defs>
</svg>
